<?xml version="1.0" standalone="no"?>
<!DOCTYPE svg PUBLIC "-//W3C//DTD SVG 1.1//EN" "http://www.w3.org/Graphics/SVG/1.1/DTD/svg11.dtd" >
<svg xmlns="http://www.w3.org/2000/svg" xmlns:xlink="http://www.w3.org/1999/xlink" version="1.1">
<metadata>
Created by FontForge 20170731 at Wed Feb 16 15:57:25 2022
 By Aleksey,,,
Copyright 2014 The Nunito Project Authors (https://github.com/googlefonts/nunito)
</metadata>
<defs>
<font id="Nunito-Medium" horiz-adv-x="0" >
  <font-face 
    font-family="Nunito Medium"
    font-weight="500"
    font-stretch="normal"
    units-per-em="1000"
    panose-1="0 0 0 0 0 0 0 0 0 0"
    ascent="800"
    descent="-200"
    x-height="487"
    cap-height="705"
    bbox="-247.737 -277 1310 1048"
    underline-thickness="28"
    underline-position="-122"
    unicode-range="U+000D-FB02"
  />
<missing-glyph horiz-adv-x="500" 
d="M50 -180v885h400v-885h-400zM100 -130h300v785h-300v-785z" />
    <glyph glyph-name="fi" unicode="fi" horiz-adv-x="570" 
d="M147 -7q-22 0 -34 12t-12 35v377h-60q-18 0 -28 9.5t-10 25.5q0 17 10 26t28 9h85l-25 -24v37q0 96 46.5 146t138.5 59l29 2q17 2 27 -4.5t13.5 -16.5t1 -21t-9.5 -19t-18 -8l-28 -2q-57 -4 -83 -35t-26 -89v-40l-13 15h273q22 0 33.5 -12.5t11.5 -36.5v-394
q0 -23 -11 -36t-34 -13q-22 0 -34 13t-12 36v373h-214v-377q0 -47 -45 -47zM453 600q-26 0 -41 14.5t-15 38.5q0 26 15 39.5t41 13.5q28 0 42.5 -13.5t14.5 -39.5q0 -24 -14.5 -38.5t-42.5 -14.5z" />
    <glyph glyph-name="fl" unicode="fl" horiz-adv-x="641" 
d="M147 -7q-22 0 -34 12t-12 35v377h-60q-18 0 -28 9.5t-10 25.5q0 17 10 26t28 9h85l-25 -24v37q0 97 47.5 147.5t139.5 58.5l31 2q15 2 24 -4.5t12 -16.5t0.5 -20.5t-9.5 -18.5t-18 -9l-22 -1q-60 -5 -87 -35.5t-27 -90.5v-40l-13 15h115q19 0 29 -9t10 -26
q0 -16 -10 -25.5t-29 -9.5h-102v-377q0 -47 -45 -47zM566 -9q-75 0 -114 44.5t-39 128.5v502q0 23 12 34.5t33 11.5q22 0 34 -11.5t12 -34.5v-495q0 -52 21.5 -77.5t61.5 -25.5q9 0 16 0.5t14 1.5q11 1 16 -6t5 -28q0 -19 -8.5 -29.5t-27.5 -13.5q-9 -1 -18 -1.5t-18 -0.5z
" />
    <glyph glyph-name=".notdef" horiz-adv-x="500" 
d="M50 -180v885h400v-885h-400zM100 -130h300v785h-300v-785z" />
    <glyph glyph-name=".null" 
 />
    <glyph glyph-name="nonmarkingreturn" horiz-adv-x="333" 
 />
    <glyph glyph-name="NULL" 
 />
    <glyph glyph-name="NULL" 
 />
    <glyph glyph-name="CR" unicode="&#xd;" horiz-adv-x="261" 
 />
    <glyph glyph-name="space" unicode=" " horiz-adv-x="261" 
 />
    <glyph glyph-name="exclam" unicode="!" horiz-adv-x="233" 
d="M117 185q-13 0 -21.5 8.5t-9.5 26.5l-22 433q-2 27 12 43t41 16q26 0 40 -16t12 -43l-22 -433q-1 -18 -9 -26.5t-21 -8.5zM117 -4q-26 0 -43 17t-17 43t17 42t43 16q28 0 43.5 -16t15.5 -42t-15.5 -43t-43.5 -17z" />
    <glyph glyph-name="quotedbl" unicode="&#x22;" horiz-adv-x="405" 
d="M114 418q-13 0 -22.5 9.5t-11.5 25.5l-16 205q-2 23 12.5 38.5t36.5 15.5q15 0 26.5 -7t18 -19t4.5 -28l-15 -205q-1 -16 -10.5 -25.5t-22.5 -9.5zM292 418q-13 0 -22.5 9.5t-11.5 25.5l-16 205q-2 23 12.5 38.5t36.5 15.5q15 0 26.5 -7t18 -19t4.5 -28l-15 -205
q-1 -16 -10.5 -25.5t-22.5 -9.5z" />
    <glyph glyph-name="numbersign" unicode="#" horiz-adv-x="600" 
d="M121 -7q-17 0 -24 11t-3 31l29 152l32 -7h-82q-12 0 -21 3.5t-13.5 10.5t-4.5 18q0 15 10.5 23t28.5 8h94l-35 -7l48 243l25 -9h-112q-12 0 -21 4t-13.5 11t-4.5 17q0 16 10.5 23.5t28.5 7.5h124l-29 -8l30 153q3 18 13.5 26t26.5 8t23 -11t4 -31l-27 -137h151l29 145
q3 18 13.5 26t26.5 8q17 0 24 -11t3 -31l-28 -145l-25 8h75q13 0 21.5 -3.5t13 -10t4.5 -17.5q0 -15 -10 -23.5t-29 -8.5h-88l29 9l-48 -244l-25 8h112q12 0 21 -3.5t13.5 -10.5t4.5 -17q0 -16 -10 -24t-29 -8h-124l29 7l-32 -160q-3 -18 -13 -26t-26 -8q-17 0 -24.5 11
t-3.5 31l29 145h-151l-30 -153q-3 -18 -13 -26t-27 -8zM202 243h151l44 227h-150z" />
    <glyph glyph-name="dollar" unicode="$" horiz-adv-x="600" 
d="M310 -122q-16 0 -27 11t-11 27v97l19 -18q-70 1 -127 19t-95 45q-13 9 -18 21.5t-3 25t10.5 21.5t20.5 11t28 -8q32 -22 78.5 -38.5t115.5 -16.5q55 0 91 14.5t53.5 40.5t17.5 59q0 28 -12.5 48t-39.5 34t-72 23l-102 22q-90 20 -134.5 65.5t-44.5 120.5q0 58 28.5 104
t80 73t119.5 30l-14 -14v94q0 16 11 27t27 11t27 -11t11 -27v-94l-16 14q47 -1 99 -19.5t89 -51.5q11 -9 14.5 -21t0 -23t-12 -18t-21 -7.5t-27.5 9.5q-33 24 -72.5 38t-94.5 14q-72 0 -114.5 -34.5t-42.5 -90.5q0 -44 26.5 -69.5t86.5 -38.5l104 -23q96 -20 142 -63.5
t46 -116.5q0 -57 -28.5 -100t-79 -68t-116.5 -30l17 18v-98q0 -16 -10.5 -27t-27.5 -11z" />
    <glyph glyph-name="percent" unicode="%" horiz-adv-x="933" 
d="M307 1q-8 -14 -19.5 -18.5t-22.5 -2t-18.5 11t-8.5 20.5t6 26l382 664q8 14 19 19t22 2.5t18.5 -11t9.5 -20.5t-6 -26zM225 283q-81 0 -126.5 57t-45.5 159q0 68 20.5 116t59 73.5t92.5 25.5q80 0 126 -57t46 -158q0 -68 -20.5 -116.5t-59 -74t-92.5 -25.5zM225 348
q30 0 51 16.5t32 50t11 84.5q0 75 -25 112.5t-69 37.5q-29 0 -50.5 -16.5t-33 -50t-11.5 -83.5q0 -76 25.5 -113.5t69.5 -37.5zM709 -9q-81 0 -126.5 57t-45.5 159q0 68 20.5 116t59 73.5t92.5 25.5q80 0 126 -57t46 -158q0 -68 -20.5 -116.5t-59 -74t-92.5 -25.5zM709 56
q30 0 51 16.5t32 50t11 84.5q0 75 -25 112.5t-69 37.5q-29 0 -50.5 -16.5t-33 -50t-11.5 -83.5q0 -76 25.5 -113.5t69.5 -37.5z" />
    <glyph glyph-name="ampersand" unicode="&#x26;" horiz-adv-x="701" 
d="M290 -9q-71 0 -122.5 22.5t-79 63t-27.5 95.5q0 33 9 62t27.5 54.5t46 49.5t63.5 47l33 21l-13 -19q-47 50 -66.5 88.5t-19.5 80.5q0 47 22 82.5t62.5 55.5t94.5 20q72 0 117 -39t45 -106q0 -37 -14.5 -69t-47.5 -63t-90 -66l1 23l183 -203h-20q14 24 24.5 54t18 65
t10.5 74q3 19 13 28.5t28 9.5q19 0 29 -11t8 -31q-4 -50 -15 -94.5t-27 -82.5t-36 -69l-1 25l99 -106q14 -14 13.5 -28t-11.5 -23t-29 -9q-16 0 -26 6t-22 19l-74 81h23q-42 -51 -101.5 -79.5t-127.5 -28.5zM294 65q56 0 99 22.5t76 67.5l-2 -27l-211 227l36 -2l-30 -20
q-40 -26 -64.5 -49.5t-35.5 -48.5t-11 -57q0 -53 37 -83t106 -30zM320 646q-42 0 -68 -24.5t-26 -64.5q0 -20 6.5 -38.5t23 -40t46.5 -54.5l-23 -1q46 29 73 51.5t39 44t12 45.5q0 38 -23 60t-60 22z" />
    <glyph glyph-name="quotesingle" unicode="'" horiz-adv-x="226" 
d="M114 418q-13 0 -22.5 9.5t-11.5 25.5l-16 205q-2 23 12.5 38.5t36.5 15.5q15 0 26.5 -7t18 -19t4.5 -28l-15 -205q-1 -16 -10.5 -25.5t-22.5 -9.5z" />
    <glyph glyph-name="parenleft" unicode="(" horiz-adv-x="326" 
d="M211 -168q-56 103 -82.5 211.5t-26.5 219.5q0 74 11.5 147t36 144.5t61.5 139.5q8 14 22 17.5t26.5 -2t18.5 -19.5t-1 -34q-26 -66 -43.5 -131t-26 -130t-8.5 -132t8.5 -132t26.5 -129.5t43 -131.5q8 -20 1.5 -34t-19 -19t-26.5 -1.5t-22 16.5z" />
    <glyph glyph-name="parenright" unicode=")" horiz-adv-x="326" 
d="M115 -168q-8 -13 -22 -16.5t-26.5 2t-18.5 19t2 33.5q27 67 44 131.5t25.5 129.5t8.5 132t-9 132t-26.5 129.5t-42.5 131.5q-8 20 -2 34t19 19.5t26.5 2t21.5 -17.5q57 -102 83.5 -210.5t26.5 -220.5q0 -74 -12 -147.5t-36 -144.5t-62 -139z" />
    <glyph glyph-name="asterisk" unicode="*" horiz-adv-x="451" 
d="M127 365q-14 9 -16 22.5t9 29.5l68 108l13 -19l-128 -4q-19 -1 -30.5 7t-11.5 25q0 15 11.5 23.5t30.5 6.5l128 -5l-12 -18l-68 108q-11 17 -9 31t16 21q13 9 26.5 2t21.5 -24l55 -107h-11l54 107q9 17 22.5 24t27.5 -2q14 -8 15.5 -22t-9.5 -30l-68 -107l-12 17l128 5
q19 2 30 -6.5t11 -23.5q0 -17 -11 -25t-30 -7l-128 4l12 19l68 -108q11 -16 9.5 -29t-15.5 -22q-15 -8 -28 -2t-22 23l-54 107h11l-55 -107q-9 -17 -22 -23.5t-27 1.5z" />
    <glyph glyph-name="plus" unicode="+" horiz-adv-x="600" 
d="M300 33q-17 0 -26 9.5t-9 26.5v184h-181q-17 0 -26 9t-9 25t9 25t26 9h181v178q0 18 9 27t27 9q17 0 25.5 -9t8.5 -27v-178h181q17 0 26 -9t9 -25t-9 -25t-26 -9h-181v-184q0 -17 -8.5 -26.5t-26.5 -9.5z" />
    <glyph glyph-name="comma" unicode="," horiz-adv-x="233" 
d="M127 -98q-10 -13 -21.5 -15t-20 4t-9.5 18t10 26q17 22 23.5 44t6.5 41l4 -24q-28 0 -45.5 16.5t-17.5 43.5q0 26 16 42t43 16t43.5 -18.5t16.5 -54.5q0 -21 -4.5 -44.5t-14.5 -47.5t-30 -47z" />
    <glyph glyph-name="hyphen" unicode="-" horiz-adv-x="427" 
d="M102 229q-16 0 -27 11t-11 27t11 26.5t27 10.5h223q15 0 26.5 -10.5t11.5 -26.5t-11.5 -27t-26.5 -11h-223z" />
    <glyph glyph-name="period" unicode="." horiz-adv-x="233" 
d="M117 -4q-26 0 -43 17t-17 43t17 42t43 16q28 0 43.5 -16t15.5 -42t-15.5 -43t-43.5 -17z" />
    <glyph glyph-name="slash" unicode="/" horiz-adv-x="290" 
d="M62 -33q-5 -15 -14.5 -21t-21.5 -6t-21.5 5.5t-13.5 16.5t0 27l236 733q5 14 15 20.5t21.5 6.5t21.5 -6t14 -16.5t0 -26.5z" />
    <glyph glyph-name="zero" unicode="0" horiz-adv-x="600" 
d="M300 -9q-122 0 -185.5 93.5t-63.5 268.5q0 119 28.5 199t84 121t136.5 41q123 0 186 -91.5t63 -268.5q0 -117 -28.5 -198t-83.5 -123t-137 -42zM300 70q80 0 119 69t39 215t-38.5 213.5t-119.5 67.5q-80 0 -119 -67.5t-39 -213.5t39 -215t119 -69z" />
    <glyph glyph-name="one" unicode="1" horiz-adv-x="600" 
d="M155 0q-19 0 -30 11t-11 29q0 19 11 29t30 10h126v549h48l-146 -94q-14 -9 -26.5 -7.5t-21.5 10t-12 20.5t1.5 24.5t19.5 20.5l138 90q15 9 28.5 14.5t26.5 5.5q15 0 26 -9t11 -29v-595h116q20 0 30.5 -10t10.5 -29t-10.5 -29.5t-30.5 -10.5h-335z" />
    <glyph glyph-name="two" unicode="2" horiz-adv-x="600" 
d="M130 0q-24 0 -35.5 11.5t-11.5 31.5q0 12 6 24t18 24l219 235q50 53 72 98t22 91q0 58 -35.5 88.5t-103.5 30.5q-42 0 -80.5 -13.5t-75.5 -41.5q-14 -10 -26 -9t-20.5 9.5t-12 20t0.5 24.5t17 22q41 32 95 50t111 18q72 0 121.5 -22.5t75.5 -65t26 -103.5
q0 -42 -14 -82.5t-41.5 -82.5t-70.5 -87l-208 -219v27h328q20 0 30.5 -10t10.5 -29t-10.5 -29.5t-30.5 -10.5h-377z" />
    <glyph glyph-name="three" unicode="3" horiz-adv-x="600" 
d="M291 -9q-58 0 -116 16t-101 48q-14 10 -19 23t-2.5 24.5t11.5 19.5t22 9.5t28 -7.5q43 -28 85.5 -40.5t88.5 -12.5q49 0 83 14.5t51.5 43t17.5 68.5q0 60 -39 90.5t-114 30.5h-70q-21 0 -32 10.5t-11 28.5q0 19 11 29t32 10h62q44 0 75 15.5t48.5 43.5t17.5 68
q0 54 -35 82.5t-101 28.5q-43 0 -81 -12.5t-77 -41.5q-13 -9 -26 -8.5t-21.5 8.5t-11.5 19.5t1 24.5t18 23q41 32 94.5 49.5t110.5 17.5q69 0 118.5 -22t75.5 -62.5t26 -97.5q0 -43 -16 -78.5t-45.5 -60t-71.5 -34.5v11q73 -13 113.5 -60.5t40.5 -118.5q0 -61 -29.5 -106.5
t-83.5 -69.5t-128 -24z" />
    <glyph glyph-name="four" unicode="4" horiz-adv-x="600" 
d="M417 -7q-22 0 -34 12t-12 35v107h-278q-22 0 -35.5 10t-13.5 31q0 12 6 25t21 35l297 433q11 15 23.5 23t28.5 8q18 0 30.5 -11.5t12.5 -35.5v-439h68q22 0 33 -10t11 -29q0 -20 -11 -30t-33 -10h-68v-107q0 -23 -12 -35t-34 -12zM371 226v370h25l-270 -395v25h245z" />
    <glyph glyph-name="five" unicode="5" horiz-adv-x="600" 
d="M313 -9q-56 0 -112.5 16.5t-102.5 50.5q-13 9 -17.5 21.5t-1.5 24.5t12 20.5t21.5 9.5t26.5 -8q40 -28 83 -41.5t90 -13.5t81 18t52.5 50t18.5 75q0 66 -39 108t-106 42q-41 0 -75.5 -14.5t-64.5 -48.5q-7 -8 -17.5 -14t-23.5 -6q-19 0 -29 10.5t-10 28.5v343q0 20 11 31
t31 11h337q20 0 31 -10t11 -29t-11 -29.5t-31 -10.5h-288v-267h-26q27 40 72.5 62t100.5 22q67 0 115.5 -28.5t75.5 -79t27 -117.5q0 -66 -29.5 -117.5t-83.5 -80.5t-129 -29z" />
    <glyph glyph-name="six" unicode="6" horiz-adv-x="600" 
d="M325 -9q-84 0 -143 41t-90 118t-31 186q0 92 19.5 162t57 118t91 73t121.5 25q46 0 94 -16.5t86 -49.5q11 -8 14.5 -20.5t0.5 -24t-11.5 -19.5t-20.5 -9t-26 8q-34 27 -69 39t-70 12q-63 0 -107 -31.5t-67 -93.5t-23 -155v-89h-10q7 56 33.5 96t69.5 62t95 22
q62 0 109.5 -29t75 -79t27.5 -116t-29 -118.5t-80 -82t-117 -29.5zM319 68q43 0 75 19t50.5 53t18.5 78t-18.5 78t-50.5 53t-75 19t-75 -19t-50.5 -53t-18.5 -78t18.5 -78t50.5 -53t75 -19z" />
    <glyph glyph-name="seven" unicode="7" horiz-adv-x="600" 
d="M169 -7q-16 0 -27.5 8t-14 21.5t6.5 31.5l317 609v-37h-352q-20 0 -31 10.5t-11 28.5q0 19 11 29.5t31 10.5h395q20 0 32.5 -10.5t12.5 -29.5q0 -16 -4 -27.5t-12 -26.5l-302 -587q-8 -16 -20.5 -23.5t-31.5 -7.5z" />
    <glyph glyph-name="eight" unicode="8" horiz-adv-x="600" 
d="M300 -9q-80 0 -136.5 23t-87 67t-30.5 107q0 49 20.5 87.5t56.5 62.5t83 30v-16q-66 14 -104.5 61.5t-38.5 112.5q0 59 29.5 101.5t82.5 64.5t125 22q73 0 126 -22t82 -64.5t29 -101.5q0 -43 -17.5 -80t-49 -61t-74.5 -33v16q70 -10 114 -58.5t44 -121.5
q0 -63 -30.5 -107t-87 -67t-136.5 -23zM300 66q82 0 124 32t42 95q0 64 -42 95t-124 31q-81 0 -123.5 -31t-42.5 -95q0 -63 42.5 -95t123.5 -32zM300 395q47 0 80 14.5t51 42.5t18 66q0 57 -39.5 89t-109.5 32t-109 -32t-39 -89q0 -58 39 -90.5t109 -32.5z" />
    <glyph glyph-name="nine" unicode="9" horiz-adv-x="600" 
d="M250 -9q-45 0 -93.5 17t-86.5 49q-11 8 -14.5 20.5t-0.5 24t11.5 20t20.5 9.5t26 -9q34 -27 69 -39t70 -12q63 0 107 31.5t67 94t23 154.5v89h10q-6 -55 -33 -95.5t-69.5 -62.5t-95.5 -22q-62 0 -109.5 29t-75 79.5t-27.5 115.5q0 67 29 119t80 81.5t117 29.5
q85 0 143.5 -40.5t89.5 -118t31 -186.5q0 -92 -19.5 -162t-57 -118t-91 -73t-121.5 -25zM282 337q42 0 74.5 19.5t50.5 53.5t18 78q0 45 -18 78.5t-50.5 52.5t-74.5 19q-43 0 -75 -19t-50.5 -52.5t-18.5 -78.5q0 -44 18.5 -78t50.5 -53.5t75 -19.5z" />
    <glyph glyph-name="colon" unicode=":" horiz-adv-x="233" 
d="M117 -4q-26 0 -43 17t-17 43t17 42t43 16q28 0 43.5 -16t15.5 -42t-15.5 -43t-43.5 -17zM117 373q-26 0 -43 16.5t-17 42.5t17 42.5t43 16.5q28 0 43.5 -16.5t15.5 -42.5t-15.5 -42.5t-43.5 -16.5z" />
    <glyph glyph-name="semicolon" unicode=";" horiz-adv-x="233" 
d="M127 -98q-10 -13 -21.5 -15t-20 4t-9.5 18t10 26q17 22 23.5 44t6.5 41l4 -24q-28 0 -45.5 16.5t-17.5 43.5q0 26 16 42t43 16t43.5 -18.5t16.5 -54.5q0 -21 -4.5 -44.5t-14.5 -47.5t-30 -47zM117 373q-26 0 -43 16.5t-17 42.5t17 42.5t43 16.5q28 0 43.5 -16.5
t15.5 -42.5t-15.5 -42.5t-43.5 -16.5z" />
    <glyph glyph-name="less" unicode="&#x3c;" horiz-adv-x="600" 
d="M509 50l-420 187q-35 16 -35 51q0 17 9 29t26 20l420 187q13 6 24 3t17 -11t7 -19t-4 -21t-18 -15l-445 -197v46l445 -197q13 -5 18 -15t4 -20.5t-7 -19t-17 -11.5t-24 3z" />
    <glyph glyph-name="equal" unicode="=" horiz-adv-x="600" 
d="M84 353q-17 0 -26 9t-9 25t9 25t26 9h432q17 0 26 -9t9 -25t-9 -25t-26 -9h-432zM84 154q-17 0 -26 9t-9 25t9 24.5t26 8.5h432q17 0 26 -8.5t9 -24.5q0 -17 -9 -25.5t-26 -8.5h-432z" />
    <glyph glyph-name="greater" unicode="&#x3e;" horiz-adv-x="600" 
d="M92 50q-14 -6 -24.5 -3t-17 11.5t-7 19t4.5 20.5t18 15l445 197v-46l-445 197q-13 5 -18 15t-4.5 21t7 19t17 11t24.5 -3l419 -187q36 -15 36 -49q0 -18 -9 -30.5t-27 -20.5z" />
    <glyph glyph-name="question" unicode="?" horiz-adv-x="447" 
d="M212 186q-14 0 -22 9t-8 26q0 34 8 64t26.5 60.5t49.5 66.5q24 28 38.5 50t21 42.5t6.5 42.5q0 40 -28.5 63.5t-79.5 23.5q-45 0 -82.5 -13.5t-72.5 -37.5q-16 -11 -30 -11t-22.5 8t-11 20t3.5 25.5t21 24.5q40 30 93 47t105 17q59 0 103 -20t69 -55.5t25 -83.5
q0 -32 -9 -60t-29 -57t-54 -64q-31 -32 -50.5 -58.5t-28 -50.5t-11.5 -52q-1 -12 -9 -19.5t-22 -7.5zM211 -4q-27 0 -43.5 17t-16.5 43t16.5 42t43.5 16t43 -16t16 -42t-16 -43t-43 -17z" />
    <glyph glyph-name="at" unicode="@" horiz-adv-x="947" 
d="M485 -164q-95 0 -173.5 30.5t-135 88t-87 137.5t-30.5 180q0 99 32 180t90.5 140t139.5 90.5t178 31.5q116 0 203.5 -46.5t136.5 -129.5t49 -194q0 -87 -24 -151t-67 -99t-101 -35q-60 0 -91 34.5t-28 93.5l21 -2q-25 -62 -71 -94t-97 -32q-78 0 -121 49t-43 134
q0 73 28 130.5t77 90.5t111 33q54 0 88.5 -27t45.5 -76h-13l11 63q5 35 41 35q17 0 26 -10t5 -30l-38 -219q-3 -14 -4.5 -26t-1.5 -23q0 -33 15 -49t44 -16q38 0 65.5 28t43.5 79t16 119q0 94 -41 163t-114 107.5t-173 38.5q-111 0 -194 -47.5t-129.5 -133t-46.5 -200.5
q0 -117 44 -201t124 -128.5t189 -44.5q72 0 130 19t101 54q14 12 27 10t20 -12t5.5 -23t-15.5 -24q-47 -40 -115.5 -63t-152.5 -23zM441 122q43 0 76.5 26t52.5 72t19 104q0 55 -24 82t-74 27q-42 0 -76.5 -24.5t-53.5 -67.5t-19 -99q0 -58 26 -89t73 -31z" />
    <glyph glyph-name="A" unicode="A" horiz-adv-x="733" 
d="M75 -7q-18 0 -28.5 8t-12.5 22t6 31l273 618q9 21 23 30.5t31 9.5t30.5 -9.5t23.5 -30.5l273 -618q8 -17 6.5 -31.5t-11.5 -22t-28 -7.5q-20 0 -32 10.5t-21 30.5l-71 166l43 -24h-428l43 24l-71 -166q-9 -22 -20 -31.5t-29 -9.5zM365 600l-156 -369l-24 21h362l-23 -21
l-157 369h-2z" />
    <glyph glyph-name="B" unicode="B" horiz-adv-x="679" 
d="M135 0q-24 0 -37 13t-13 37v605q0 24 13 37t37 13h237q73 0 124.5 -22t78.5 -63t27 -99q0 -65 -38 -109t-104 -59v15q74 -9 116.5 -54.5t42.5 -118.5q0 -94 -61.5 -144.5t-173.5 -50.5h-249zM175 73h199q78 0 116 30.5t38 93.5t-38 93t-116 30h-199v-247zM175 394h183
q76 0 114.5 30.5t38.5 88.5t-38.5 88.5t-114.5 30.5h-183v-238z" />
    <glyph glyph-name="C" unicode="C" horiz-adv-x="675" 
d="M395 -9q-105 0 -180 44t-115.5 125.5t-40.5 192.5q0 83 23 149.5t66 114t105.5 72.5t141.5 25q60 0 115.5 -17t95.5 -48q16 -11 21 -25t1.5 -26.5t-13 -21t-23.5 -9t-30 10.5q-35 27 -76.5 39.5t-88.5 12.5q-77 0 -130.5 -32.5t-81 -94t-27.5 -150.5q0 -88 27.5 -150.5
t81 -95t130.5 -32.5q47 0 89.5 13t78.5 40q16 11 29.5 10t22.5 -8.5t12.5 -20t-0.5 -25.5t-18 -23q-41 -35 -97.5 -52.5t-118.5 -17.5z" />
    <glyph glyph-name="D" unicode="D" horiz-adv-x="747" 
d="M135 0q-24 0 -37 13t-13 37v605q0 24 13 37t37 13h193q173 0 266.5 -90.5t93.5 -261.5q0 -85 -24 -151t-70 -110.5t-112.5 -68t-153.5 -23.5h-193zM178 79h144q68 0 118 17t83.5 51t50.5 85.5t17 120.5q0 137 -67.5 205t-201.5 68h-144v-547z" />
    <glyph glyph-name="E" unicode="E" horiz-adv-x="586" 
d="M135 0q-24 0 -37 13t-13 37v605q0 24 13 37t37 13h368q19 0 29.5 -9.5t10.5 -27.5q0 -19 -10.5 -29t-29.5 -10h-328v-233h307q19 0 29 -10t10 -28q0 -19 -10 -28.5t-29 -9.5h-307v-244h328q19 0 29.5 -9.5t10.5 -28.5t-10.5 -28.5t-29.5 -9.5h-368z" />
    <glyph glyph-name="F" unicode="F" horiz-adv-x="551" 
d="M134 -7q-23 0 -36 13t-13 37v612q0 24 13 37t37 13h359q20 0 30 -9.5t10 -27.5q0 -19 -10 -29t-30 -10h-316v-236h296q19 0 29 -10t10 -27q0 -19 -10 -29t-29 -10h-296v-274q0 -50 -44 -50z" />
    <glyph glyph-name="G" unicode="G" horiz-adv-x="729" 
d="M410 -9q-113 0 -191.5 43.5t-119 124.5t-40.5 193q0 84 23 150.5t67.5 114t108 72.5t143.5 25q62 0 120 -16.5t106 -53.5q12 -9 15.5 -21t0.5 -24t-11.5 -21t-21 -10.5t-26.5 7.5q-41 30 -85.5 43t-97.5 13q-79 0 -134 -32.5t-82.5 -95t-27.5 -151.5q0 -137 64.5 -208
t191.5 -71q47 0 91.5 9t85.5 25l-20 -50v241h-136q-18 0 -28.5 10t-10.5 27t10.5 26t28.5 9h177q18 0 28.5 -10t10.5 -29v-257q0 -16 -6 -27.5t-20 -16.5q-42 -17 -100 -28t-114 -11z" />
    <glyph glyph-name="H" unicode="H" horiz-adv-x="764" 
d="M131 -7q-22 0 -34 12.5t-12 35.5v623q0 24 12 36t34 12q23 0 35 -12t12 -36v-267h408v267q0 24 12 36t35 12q22 0 34 -12t12 -36v-623q0 -23 -12 -35.5t-34 -12.5q-23 0 -35 12.5t-12 35.5v277h-408v-277q0 -23 -11.5 -35.5t-35.5 -12.5z" />
    <glyph glyph-name="I" unicode="I" horiz-adv-x="262" 
d="M131 -7q-22 0 -34 12.5t-12 35.5v623q0 24 12 36t34 12q23 0 35 -12t12 -36v-623q0 -23 -11.5 -35.5t-35.5 -12.5z" />
    <glyph glyph-name="J" unicode="J" horiz-adv-x="331" 
d="M32 -6q-21 -1 -33 11t-12 30q0 14 8.5 24.5t26.5 11.5l31 3q49 4 75 34t26 82v475q0 23 12 35t34 12t34 -12t12 -35v-475q0 -59 -20.5 -100.5t-60.5 -65t-100 -28.5z" />
    <glyph glyph-name="K" unicode="K" horiz-adv-x="634" 
d="M131 -7q-22 0 -34 12.5t-12 35.5v624q0 23 12 35t34 12q23 0 35 -12t12 -35v-279h2l316 301q14 13 26.5 19t27.5 6q21 0 30.5 -10.5t7.5 -25t-15 -27.5l-330 -310l1 47l345 -324q16 -15 17 -31.5t-9.5 -27t-31.5 -10.5q-17 0 -28.5 7t-26.5 22l-330 309h-2v-290
q0 -23 -11.5 -35.5t-35.5 -12.5z" />
    <glyph glyph-name="L" unicode="L" horiz-adv-x="548" 
d="M132 0q-22 0 -34.5 13t-12.5 35v614q0 23 12 35t34 12q23 0 35 -12t12 -35v-582h318q21 0 31.5 -10t10.5 -29q0 -20 -10.5 -30.5t-31.5 -10.5h-364z" />
    <glyph glyph-name="M" unicode="M" horiz-adv-x="858" 
d="M129 -7q-20 0 -31 12t-11 32v631q0 21 11.5 32.5t31.5 11.5q18 0 28.5 -7t19.5 -24l268 -503h-31l268 503q9 17 19 24t28 7q20 0 31 -11.5t11 -32.5v-631q0 -20 -10.5 -32t-31.5 -12t-31.5 12t-10.5 32v539h22l-240 -449q-8 -13 -16.5 -19.5t-23.5 -6.5q-14 0 -23.5 7
t-16.5 19l-243 450h24v-540q0 -20 -10.5 -32t-31.5 -12z" />
    <glyph glyph-name="N" unicode="N" horiz-adv-x="741" 
d="M128 -7q-20 0 -31.5 12t-11.5 33v627q0 23 11 35t29 12q17 0 26 -6t20 -21l424 -562h-25v544q0 22 11.5 33.5t32.5 11.5t32 -11.5t11 -33.5v-629q0 -21 -10.5 -33t-27.5 -12q-16 0 -26.5 6.5t-21.5 21.5l-423 562h23v-545q0 -21 -11 -33t-32 -12z" />
    <glyph glyph-name="O" unicode="O" horiz-adv-x="771" 
d="M386 -9q-100 0 -173 44.5t-113.5 126t-40.5 191.5q0 83 23 149.5t65.5 114t103 72.5t135.5 25q100 0 173 -44t113 -125t40 -191q0 -83 -23 -150t-65.5 -115t-102.5 -73t-135 -25zM386 73q72 0 123 33t78.5 96t27.5 151q0 133 -59.5 206t-169.5 73q-72 0 -123.5 -32.5
t-78.5 -95t-27 -151.5q0 -132 60 -206t169 -74z" />
    <glyph glyph-name="P" unicode="P" horiz-adv-x="637" 
d="M131 -7q-22 0 -34 12.5t-12 35.5v617q0 23 12.5 35t34.5 12h238q114 0 175.5 -56t61.5 -157q0 -102 -61.5 -158t-175.5 -56h-192v-237q0 -23 -11.5 -35.5t-35.5 -12.5zM178 353h180q78 0 117.5 35.5t39.5 103.5t-39.5 102.5t-117.5 34.5h-180v-276z" />
    <glyph glyph-name="Q" unicode="Q" horiz-adv-x="771" 
d="M635 -128q11 -17 9 -30.5t-11 -23t-23 -12t-28 3t-24 21.5l-65 106q-16 26 -43 40t-65 14l75 31q47 0 74.5 -16.5t54.5 -59.5zM386 -9q-100 0 -173 44.5t-113.5 126t-40.5 191.5q0 83 23 149.5t65.5 114t103 72.5t135.5 25q100 0 173 -44t113 -125t40 -191
q0 -83 -23 -150t-65.5 -115t-102.5 -73t-135 -25zM386 73q72 0 123 33t78.5 96t27.5 151q0 133 -59.5 206t-169.5 73q-72 0 -123.5 -32.5t-78.5 -95t-27 -151.5q0 -132 60 -206t169 -74z" />
    <glyph glyph-name="R" unicode="R" horiz-adv-x="673" 
d="M131 -7q-22 0 -34 12.5t-12 35.5v617q0 23 12.5 35t34.5 12h238q114 0 175.5 -53.5t61.5 -151.5q0 -64 -28 -109.5t-81 -69.5t-128 -24l10 14h22q40 0 69.5 -20t52.5 -64l92 -169q9 -16 8 -31t-11 -24.5t-29 -9.5q-20 0 -32 8.5t-21 25.5l-108 198q-22 42 -50 55.5
t-75 13.5h-120v-253q0 -23 -11.5 -35.5t-35.5 -12.5zM178 366h177q80 0 120 33.5t40 98.5t-40 98t-120 33h-177v-263z" />
    <glyph glyph-name="S" unicode="S" horiz-adv-x="618" 
d="M316 -9q-47 0 -91 7.5t-83 22.5t-70 37q-13 9 -18.5 22t-3 25.5t11 21.5t20.5 11t26 -8q46 -31 96.5 -45t111.5 -14q88 0 129.5 32t41.5 84q0 43 -30 67.5t-101 38.5l-106 22q-94 20 -140.5 66t-46.5 123q0 47 19 85.5t54 66.5t82.5 43t105.5 15q62 0 116.5 -17t98.5 -50
q12 -9 16 -21.5t1.5 -24.5t-11 -20t-21 -9t-27.5 9q-40 28 -82 40.5t-92 12.5q-51 0 -88.5 -16t-58 -44.5t-20.5 -66.5q0 -46 28 -72t94 -40l105 -21q100 -21 148.5 -64.5t48.5 -116.5q0 -46 -18.5 -83t-52.5 -63.5t-83 -41t-110 -14.5z" />
    <glyph glyph-name="T" unicode="T" horiz-adv-x="607" 
d="M304 -7q-23 0 -35 12.5t-12 35.5v585h-219q-19 0 -30 10.5t-11 29.5t11 29t30 10h531q20 0 30.5 -10t10.5 -29t-10.5 -29.5t-30.5 -10.5h-219v-585q0 -23 -11.5 -35.5t-34.5 -12.5z" />
    <glyph glyph-name="U" unicode="U" horiz-adv-x="731" 
d="M366 -9q-70 0 -123.5 18.5t-89.5 55t-54.5 91t-18.5 126.5v383q0 24 12 35.5t34 11.5q23 0 35 -11.5t12 -35.5v-380q0 -107 49 -159.5t144 -52.5t144 52.5t49 159.5v380q0 24 12 35.5t34 11.5t34 -11.5t12 -35.5v-383q0 -95 -32.5 -160t-96 -98t-156.5 -33z" />
    <glyph glyph-name="V" unicode="V" horiz-adv-x="694" 
d="M348 -7q-21 0 -34 9.5t-22 29.5l-271 619q-8 19 -4.5 32.5t15 21t27.5 7.5q21 0 31.5 -9t18.5 -27l258 -599h-35l257 599q8 18 19 27t31 9q16 0 26.5 -8t13 -21.5t-4.5 -31.5l-272 -619q-8 -20 -20.5 -29.5t-33.5 -9.5z" />
    <glyph glyph-name="W" unicode="W" horiz-adv-x="1104" 
d="M316 -7q-20 0 -32 10t-20 32l-218 622q-9 23 2.5 39t38.5 16q19 0 30 -9t18 -30l201 -590h-36l206 588q8 21 19 31t29 10q19 0 29.5 -10t17.5 -32l202 -587h-32l203 590q7 20 18 29.5t31 9.5q23 0 34 -16t3 -39l-220 -623q-7 -21 -19 -31t-32 -10q-21 0 -33 10t-20 32
l-195 560h22l-196 -561q-8 -21 -19.5 -31t-31.5 -10z" />
    <glyph glyph-name="X" unicode="X" horiz-adv-x="655" 
d="M83 -7q-18 0 -30 9.5t-13.5 24.5t9.5 30l240 321v-36l-226 304q-12 17 -10.5 32t13 24.5t28.5 9.5q15 0 26.5 -6.5t22.5 -23.5l200 -273h-29l198 273q11 17 22.5 23.5t27.5 6.5q18 0 29.5 -9.5t13 -24.5t-11.5 -32l-226 -304v36l239 -321q11 -15 10 -30t-13 -24.5
t-31 -9.5q-13 0 -25 7t-24 23l-213 291h35l-212 -291q-12 -16 -24 -23t-26 -7z" />
    <glyph glyph-name="Y" unicode="Y" horiz-adv-x="601" 
d="M300 -7q-22 0 -34 12.5t-12 36.5v323l20 -62l-248 344q-10 14 -9.5 29.5t11.5 25.5t30 10q15 0 27 -7t23 -23l206 -284h-23l206 284q11 17 22 23.5t28 6.5q18 0 28.5 -9.5t11 -24.5t-11.5 -31l-248 -344l20 62v-323q0 -49 -47 -49z" />
    <glyph glyph-name="Z" unicode="Z" horiz-adv-x="593" 
d="M91 0q-18 0 -29.5 7.5t-16 20t0 28.5t16.5 33l409 570v-33h-387q-21 0 -32 10.5t-11 29.5t11 29t32 10h429q18 0 29.5 -7.5t16 -20t0.5 -28.5t-17 -33l-409 -570v33h402q21 0 32 -10t11 -29t-11 -29.5t-32 -10.5h-444z" />
    <glyph glyph-name="bracketleft" unicode="[" horiz-adv-x="324" 
d="M148 -180q-16 0 -28 11.5t-12 27.5v807q0 17 12 28t28 11h138q17 0 27 -10t10 -25t-10 -25.5t-27 -10.5h-87v-743h87q17 0 27 -10.5t10 -25.5t-10 -25t-27 -10h-138z" />
    <glyph glyph-name="backslash" unicode="\" horiz-adv-x="290" 
d="M227 -33l-236 733q-4 16 0 26.5t13.5 16.5t21 6t21.5 -6.5t15 -20.5l237 -733q4 -16 0 -27t-14 -16.5t-21.5 -5.5t-21.5 6t-15 21z" />
    <glyph glyph-name="bracketright" unicode="]" horiz-adv-x="324" 
d="M38 -180q-16 0 -26 10t-10 25t10 25.5t26 10.5h87v743h-87q-16 0 -26 10.5t-10 25.5t10 25t26 10h138q17 0 28.5 -11t11.5 -28v-807q0 -16 -11.5 -27.5t-28.5 -11.5h-138z" />
    <glyph glyph-name="asciicircum" unicode="^" horiz-adv-x="600" 
d="M95 133q-23 0 -30.5 14t1.5 34l189 424q7 17 18 23.5t27 6.5q32 0 45 -30l189 -424q9 -20 2 -34t-31 -14q-12 0 -20.5 6.5t-15.5 21.5l-191 433h45l-192 -433q-7 -15 -15 -21.5t-21 -6.5z" />
    <glyph glyph-name="underscore" unicode="_" horiz-adv-x="500" 
d="M45 -58q-14 0 -23 8t-9 21q0 12 9 20.5t23 8.5h411q13 0 22 -8.5t9 -20.5q0 -13 -9 -21t-22 -8h-411z" />
    <glyph glyph-name="grave" unicode="`" horiz-adv-x="361" 
d="M207 557l-100 152q-9 14 -7 26t11 20.5t21 11.5t24 -1.5t20 -20.5l81 -159q6 -13 2.5 -23t-13.5 -15.5t-21 -3.5t-18 13z" />
    <glyph glyph-name="a" unicode="a" horiz-adv-x="533" 
d="M228 -9q-50 0 -90.5 20t-63 54t-22.5 76q0 54 27 85t91 44.5t172 13.5h47v-58h-45q-77 0 -121.5 -7t-62.5 -24.5t-18 -48.5q0 -39 27.5 -64t75.5 -25q38 0 67 18.5t46 50t17 72.5v115q0 59 -24 85.5t-81 26.5q-33 0 -68 -9t-73 -28q-15 -7 -26 -4.5t-17.5 12t-7 21
t5 22.5t19.5 16q44 22 87.5 31.5t81.5 9.5q65 0 107 -20.5t63 -63t21 -108.5v-264q0 -23 -11 -35t-32 -12q-20 0 -31.5 12t-11.5 35v71h9q-8 -37 -30 -64t-54.5 -41.5t-73.5 -14.5z" />
    <glyph glyph-name="b" unicode="b" horiz-adv-x="587" 
d="M328 -9q-66 0 -113 33t-63 89l11 15v-88q0 -23 -11.5 -35t-33.5 -12q-21 0 -33 12t-12 35v626q0 23 12 34.5t33 11.5q22 0 34 -11.5t12 -34.5v-289h-11q16 54 63 86.5t112 32.5t113.5 -30.5t75 -87t26.5 -134.5q0 -77 -27 -134.5t-75 -88t-113 -30.5zM307 63
q43 0 75.5 21t50.5 61t18 99q0 88 -39 134t-105 46q-44 0 -76.5 -20.5t-50 -60.5t-17.5 -99q0 -88 39 -134.5t105 -46.5z" />
    <glyph glyph-name="c" unicode="c" horiz-adv-x="465" 
d="M284 -9q-74 0 -128 31.5t-83 89t-29 135.5q0 58 16.5 104t47.5 78.5t75.5 49.5t100.5 17q35 0 74 -11t72 -36q11 -8 14 -18.5t0.5 -21.5t-10 -18.5t-19 -8.5t-24.5 7q-24 18 -50.5 26t-50.5 8q-37 0 -65.5 -12t-48 -34.5t-29.5 -55t-10 -75.5q0 -85 40 -133.5t113 -48.5
q24 0 50 7.5t51 25.5q13 8 24 6.5t18.5 -9t9.5 -18t-1.5 -21.5t-14.5 -18q-32 -24 -70 -35t-73 -11z" />
    <glyph glyph-name="d" unicode="d" horiz-adv-x="587" 
d="M259 -9q-64 0 -112.5 30.5t-75.5 88t-27 134.5q0 78 26.5 134.5t75 87t113.5 30.5t112 -32.5t63 -86.5h-11v289q0 23 11.5 34.5t33.5 11.5t34 -11.5t12 -34.5v-626q0 -23 -12 -35t-34 -12q-21 0 -33 12t-12 35v91l11 -18q-15 -56 -62.5 -89t-112.5 -33zM280 63
q44 0 76.5 21t50 61t17.5 99q0 88 -39 134t-105 46q-43 0 -75.5 -20.5t-50.5 -60.5t-18 -99q0 -88 39.5 -134.5t104.5 -46.5z" />
    <glyph glyph-name="e" unicode="e" horiz-adv-x="534" 
d="M298 -9q-79 0 -135.5 30.5t-87.5 87t-31 133.5q0 76 30.5 133t84 89t122.5 32q49 0 88.5 -16.5t67.5 -47.5t42.5 -75.5t14.5 -100.5q0 -16 -9.5 -24.5t-27.5 -8.5h-342v58h319l-17 -14q0 52 -15.5 88.5t-45 55.5t-73.5 19q-48 0 -82 -22.5t-52 -63t-18 -93.5v-6
q0 -90 43 -136t124 -46q32 0 65.5 8t64.5 29q15 9 27.5 8.5t20.5 -8t10 -18t-3 -22.5t-19 -21q-33 -23 -78.5 -35.5t-87.5 -12.5z" />
    <glyph glyph-name="f" unicode="f" horiz-adv-x="340" 
d="M147 -7q-22 0 -34 12t-12 35v377h-60q-18 0 -28 9.5t-10 25.5q0 17 10 26t28 9h85l-25 -24v37q0 97 47.5 147.5t139.5 58.5l31 2q15 2 24 -4.5t12 -16.5t0.5 -20.5t-9.5 -18.5t-18 -9l-22 -1q-60 -5 -87 -35.5t-27 -90.5v-40l-13 15h115q19 0 29 -9t10 -26
q0 -16 -10 -25.5t-29 -9.5h-102v-377q0 -47 -45 -47z" />
    <glyph glyph-name="g" unicode="g" horiz-adv-x="590" 
d="M292 -189q-54 0 -104.5 12t-91.5 37q-13 8 -17.5 18.5t-2 21.5t10 19.5t18 11t21.5 -4.5q44 -25 84 -34t76 -9q71 0 106.5 36.5t35.5 106.5v108h9q-14 -56 -62.5 -89t-112.5 -33q-66 0 -115 30.5t-76 85t-27 126.5q0 55 15.5 99.5t44 76t68.5 49t90 17.5q65 0 113 -33
t62 -89l-11 -14v88q0 23 12 34.5t34 11.5q21 0 33 -11.5t12 -34.5v-410q0 -113 -57.5 -170t-167.5 -57zM282 84q45 0 77.5 20.5t50 59t17.5 90.5q0 79 -39 124.5t-106 45.5q-45 0 -77.5 -20.5t-50.5 -58.5t-18 -91q0 -78 39.5 -124t106.5 -46z" />
    <glyph glyph-name="h" unicode="h" horiz-adv-x="572" 
d="M118 -7q-21 0 -33 12t-12 35v626q0 23 12 34.5t33 11.5q22 0 34 -11.5t12 -34.5v-285h-13q21 57 68.5 86t108.5 29q59 0 97 -21.5t57 -64.5t19 -108v-262q0 -23 -11.5 -35t-33.5 -12t-34 12t-12 35v257q0 65 -25 95t-80 30q-64 0 -102.5 -39.5t-38.5 -106.5v-236
q0 -47 -46 -47z" />
    <glyph glyph-name="i" unicode="i" horiz-adv-x="237" 
d="M118 -5q-21 0 -33 13t-12 36v399q0 24 12 36.5t33 12.5q22 0 34 -12.5t12 -36.5v-399q0 -23 -11.5 -36t-34.5 -13zM118 600q-27 0 -42.5 14.5t-15.5 38.5q0 26 15.5 39.5t42.5 13.5q29 0 43.5 -13.5t14.5 -39.5q0 -24 -14.5 -38.5t-43.5 -14.5z" />
    <glyph glyph-name="j" unicode="j" horiz-adv-x="241" 
d="M-12 -190q-16 -1 -27 5t-15 16.5t-2 21t9.5 18t20.5 8.5q53 3 78 28.5t25 79.5v461q0 23 12 34.5t34 11.5q21 0 33 -11.5t12 -34.5v-454q0 -62 -20.5 -101.5t-60.5 -59.5t-99 -23zM122 600q-27 0 -42.5 14.5t-15.5 38.5q0 26 15.5 39.5t42.5 13.5q28 0 43 -13.5t15 -39.5
q0 -24 -15 -38.5t-43 -14.5z" />
    <glyph glyph-name="k" unicode="k" horiz-adv-x="508" 
d="M118 -7q-21 0 -33 12t-12 35v626q0 23 12 34.5t33 11.5q22 0 34 -11.5t12 -34.5v-394h2l196 191q15 15 27 23t31 8t29 -9.5t10 -24t-14 -28.5l-208 -202v45l227 -219q14 -14 13.5 -29t-11 -24.5t-27.5 -9.5q-20 0 -32.5 8t-28.5 25l-212 200h-2v-186q0 -47 -46 -47z" />
    <glyph glyph-name="l" unicode="l" horiz-adv-x="301" 
d="M226 -9q-75 0 -114 44.5t-39 128.5v502q0 23 12 34.5t33 11.5q22 0 34 -11.5t12 -34.5v-495q0 -52 21.5 -77.5t61.5 -25.5q9 0 16 0.5t14 1.5q11 1 16 -6t5 -28q0 -19 -8.5 -29.5t-27.5 -13.5q-9 -1 -18 -1.5t-18 -0.5z" />
    <glyph glyph-name="m" unicode="m" horiz-adv-x="861" 
d="M120 -7q-21 0 -33 12t-12 35v408q0 23 12 34.5t33 11.5t32.5 -11.5t11.5 -34.5v-85l-11 18q19 55 61.5 85t101.5 30q62 0 100 -29.5t51 -89.5h-14q18 55 64.5 87t108.5 32q55 0 90.5 -21.5t53.5 -64t18 -108.5v-262q0 -23 -12 -35t-33 -12q-22 0 -34 12t-12 35v258
q0 64 -22 94t-74 30q-57 0 -90.5 -39.5t-33.5 -108.5v-234q0 -23 -11.5 -35t-33.5 -12t-34 12t-12 35v258q0 64 -22 94t-74 30q-57 0 -90.5 -39.5t-33.5 -108.5v-234q0 -47 -46 -47z" />
    <glyph glyph-name="n" unicode="n" horiz-adv-x="572" 
d="M118 -7q-21 0 -33 12t-12 35v408q0 23 12 34.5t33 11.5t32.5 -11.5t11.5 -34.5v-82l-11 15q21 57 68.5 86t108.5 29q59 0 97 -21t57 -64t19 -109v-262q0 -23 -11.5 -35t-33.5 -12t-34 12t-12 35v257q0 65 -25 95t-80 30q-64 0 -102.5 -39.5t-38.5 -106.5v-236
q0 -47 -46 -47z" />
    <glyph glyph-name="o" unicode="o" horiz-adv-x="560" 
d="M280 -9q-72 0 -125 31t-82 88t-29 134q0 58 16.5 104.5t47.5 79.5t74.5 50.5t97.5 17.5q72 0 125 -31t82 -87.5t29 -133.5q0 -58 -16.5 -105t-47.5 -80t-74.5 -50.5t-97.5 -17.5zM280 63q44 0 76.5 21t50 61t17.5 99q0 88 -39 134t-105 46q-43 0 -75.5 -20.5t-50.5 -60.5
t-18 -99q0 -88 39.5 -134.5t104.5 -46.5z" />
    <glyph glyph-name="p" unicode="p" horiz-adv-x="587" 
d="M118 -187q-21 0 -33 12t-12 34v589q0 23 12 34.5t33 11.5q22 0 33.5 -11.5t11.5 -34.5v-91l-11 18q16 55 63 88t113 33q65 0 113 -30.5t75 -87t27 -134.5q0 -77 -26.5 -134.5t-75 -88t-113.5 -30.5t-112 33t-63 87h11v-252q0 -22 -12 -34t-34 -12zM307 63q43 0 75.5 21
t50.5 61t18 99q0 88 -39 134t-105 46q-44 0 -76.5 -20.5t-50 -60.5t-17.5 -99q0 -88 39 -134.5t105 -46.5z" />
    <glyph glyph-name="q" unicode="q" horiz-adv-x="587" 
d="M468 -187q-22 0 -33.5 12t-11.5 34v252h11q-16 -54 -63 -87t-112 -33t-113.5 30.5t-75 88t-26.5 134.5q0 78 27 134.5t75.5 87t112.5 30.5q65 0 112.5 -33t62.5 -88l-11 -18v91q0 23 12 34.5t33 11.5q22 0 34 -11.5t12 -34.5v-589q0 -22 -12 -34t-34 -12zM280 63
q44 0 76.5 21t50 61t17.5 99q0 88 -39 134t-105 46q-43 0 -75.5 -20.5t-50.5 -60.5t-18 -99q0 -88 39.5 -134.5t104.5 -46.5z" />
    <glyph glyph-name="r" unicode="r" horiz-adv-x="365" 
d="M120 -7q-23 0 -35 12t-12 35v408q0 23 12 34.5t33 11.5t32.5 -11.5t11.5 -34.5v-77h-10q16 60 60 91t111 35q16 1 26 -7.5t11 -28.5q1 -19 -9 -30.5t-31 -13.5l-18 -1q-66 -7 -101.5 -43t-35.5 -99v-234q0 -23 -11.5 -35t-33.5 -12z" />
    <glyph glyph-name="s" unicode="s" horiz-adv-x="483" 
d="M241 -9q-45 0 -90.5 10.5t-85.5 36.5q-11 7 -15.5 17.5t-3 21t8.5 18.5t17.5 9.5t22.5 -5.5q39 -22 75.5 -31t72.5 -9q55 0 83 20t28 53q0 28 -18.5 43.5t-57.5 23.5l-93 19q-62 14 -93.5 46.5t-31.5 83.5q0 45 24.5 78.5t68.5 51.5t101 18q44 0 83.5 -11.5t71.5 -34.5
q12 -7 15.5 -17.5t1 -21t-9.5 -17.5t-18 -8.5t-24 5.5q-29 20 -59.5 28.5t-60.5 8.5q-54 0 -81.5 -21t-27.5 -55q0 -26 16.5 -43t52.5 -25l93 -19q65 -14 98 -44.5t33 -82.5q0 -68 -53.5 -107.5t-143.5 -39.5z" />
    <glyph glyph-name="t" unicode="t" horiz-adv-x="358" 
d="M275 -9q-59 0 -98.5 21t-59 61t-19.5 98v246h-64q-18 0 -28 9.5t-10 25.5q0 17 10 26t28 9h64v109q0 23 12 34.5t34 11.5t33.5 -11.5t11.5 -34.5v-109h121q19 0 29 -9t10 -26q0 -16 -10 -25.5t-29 -9.5h-121v-238q0 -55 23 -83t76 -28q19 0 32 3.5t23 3.5q9 1 15.5 -6
t6.5 -26q0 -14 -4.5 -25.5t-17.5 -15.5q-12 -4 -32 -7.5t-36 -3.5z" />
    <glyph glyph-name="u" unicode="u" horiz-adv-x="565" 
d="M247 -9q-59 0 -98.5 22t-58.5 65t-19 108v262q0 23 11.5 34.5t33.5 11.5t34 -11.5t12 -34.5v-262q0 -62 25 -91.5t79 -29.5q60 0 97.5 40t37.5 106v237q0 23 11.5 34.5t33.5 11.5t34 -11.5t12 -34.5v-408q0 -47 -44 -47q-22 0 -33.5 12t-11.5 35v87l13 -17
q-20 -58 -64.5 -88.5t-104.5 -30.5z" />
    <glyph glyph-name="v" unicode="v" horiz-adv-x="518" 
d="M258 -7q-19 0 -33 10t-24 32l-170 396q-7 17 -5 31t13.5 23t31.5 9q17 0 27 -8t19 -28l157 -387h-28l161 387q8 20 18.5 28t29.5 8q17 0 26.5 -9t11.5 -23t-6 -30l-171 -397q-9 -22 -23.5 -32t-34.5 -10z" />
    <glyph glyph-name="w" unicode="w" horiz-adv-x="844" 
d="M246 -7q-19 0 -33 9.5t-22 31.5l-149 397q-7 19 -4 33t14 22t29 8q17 0 27 -8t17 -29l136 -384h-24l140 386q7 18 18.5 26.5t28.5 8.5q18 0 30 -8.5t17 -26.5l138 -386h-23l138 386q7 20 18 27.5t27 7.5q18 0 27 -9t10.5 -23.5t-4.5 -30.5l-149 -397q-7 -21 -21.5 -31
t-33.5 -10t-33.5 10t-22.5 31l-143 392h46l-143 -392q-8 -21 -22 -31t-34 -10z" />
    <glyph glyph-name="x" unicode="x" horiz-adv-x="530" 
d="M83 -6q-15 0 -26 9t-11.5 24t12.5 32l173 215v-45l-162 200q-14 17 -13 32t11.5 24t26.5 9q17 0 28.5 -6t21.5 -19l138 -175h-32l138 175q10 13 21.5 19t27.5 6t26.5 -9t11 -24t-12.5 -32l-161 -198v40l172 -212q14 -16 13 -31t-11.5 -24.5t-26.5 -9.5q-17 0 -28.5 6
t-21.5 19l-149 187h31l-147 -187q-10 -12 -21.5 -18.5t-28.5 -6.5z" />
    <glyph glyph-name="y" unicode="y" horiz-adv-x="517" 
d="M185 -187q-16 0 -26.5 8.5t-12 23t5.5 30.5l68 154v-38l-189 440q-7 17 -5 31t13.5 23t31.5 9q17 0 27 -8t19 -28l157 -387h-28l160 387q8 20 19 28t30 8q17 0 26.5 -9t11.5 -23t-6 -30l-252 -583q-10 -21 -20.5 -28.5t-29.5 -7.5z" />
    <glyph glyph-name="z" unicode="z" horiz-adv-x="466" 
d="M88 0q-15 0 -24 7t-12.5 18t0 24t14.5 26l277 365v-23h-261q-17 0 -26.5 9.5t-9.5 25.5q0 17 9.5 26t26.5 9h305q17 0 27.5 -7t14 -18t0.5 -23.5t-14 -24.5l-281 -369v25h274q36 0 36 -35q0 -16 -9.5 -25.5t-26.5 -9.5h-320z" />
    <glyph glyph-name="braceleft" unicode="{" horiz-adv-x="361" 
d="M250 -180q-33 0 -56.5 12t-36 36t-12.5 58v220q0 41 -15.5 60t-57.5 20q-14 1 -23 11.5t-9 25.5t9 25.5t23 10.5q42 2 57.5 21t15.5 59v220q0 51 27.5 78.5t77.5 27.5h71q17 0 28 -10t11 -25t-10 -25.5t-25 -10.5h-46q-21 0 -32 -11t-11 -33v-221q0 -30 -12 -54.5
t-32.5 -39.5t-46.5 -15v4q26 0 46.5 -14t32.5 -38.5t12 -55.5v-221q0 -22 11 -33t32 -11h46q15 0 25 -10.5t10 -25.5t-11 -25t-28 -10h-71z" />
    <glyph glyph-name="bar" unicode="|" horiz-adv-x="270" 
d="M135 -188q-22 0 -33.5 12t-11.5 34v808q0 23 11.5 34.5t33.5 11.5t34 -11.5t12 -34.5v-808q0 -46 -46 -46z" />
    <glyph glyph-name="braceright" unicode="}" horiz-adv-x="361" 
d="M40 -180q-16 0 -27 10t-11 25t9.5 25.5t24.5 10.5h47q21 0 31.5 11t10.5 33v221q0 31 12 55.5t33 39t47 14.5v-4q-26 0 -47 14.5t-33 39t-12 54.5v221q0 22 -10.5 33t-31.5 11h-47q-15 0 -24.5 10.5t-9.5 25.5t11 25t27 10h71q34 0 57.5 -12t35.5 -36t12 -58v-220
q0 -40 16 -59.5t57 -20.5q15 0 23.5 -11t8.5 -26q0 -14 -8.5 -24.5t-23.5 -11.5q-41 0 -57 -19.5t-16 -60.5v-220q0 -51 -27 -78.5t-78 -27.5h-71z" />
    <glyph glyph-name="asciitilde" unicode="~" horiz-adv-x="600" 
d="M414 215q-26 0 -55 9.5t-69 31.5t-61 30t-37 8q-21 0 -39 -9t-33 -34q-9 -14 -21 -16t-22 4.5t-13.5 18.5t4.5 26q20 38 51 56.5t68 18.5q25 0 53.5 -8.5t67.5 -30.5q36 -19 59 -29t41 -10q21 0 39.5 9t33.5 34q8 14 20.5 15.5t22.5 -5t13.5 -18.5t-4.5 -25
q-21 -38 -52 -57t-67 -19z" />
    <glyph glyph-name="uni00A0" unicode="&#xa0;" horiz-adv-x="261" 
 />
    <glyph glyph-name="exclamdown" unicode="&#xa1;" horiz-adv-x="233" 
d="M117 -187q-27 0 -41 16t-12 43l22 397q1 18 9.5 26.5t21.5 8.5t21.5 -8.5t8.5 -26.5l21 -397q2 -27 -11.5 -43t-39.5 -16zM117 373q-26 0 -43 16.5t-17 42.5t17 42.5t43 16.5q28 0 43.5 -16.5t15.5 -42.5t-15.5 -42.5t-43.5 -16.5z" />
    <glyph glyph-name="cent" unicode="&#xa2;" horiz-adv-x="600" 
d="M319 -122q-16 0 -27 11t-11 28v101l16 -23q-63 7 -109.5 40t-72.5 87t-26 122q0 49 14.5 91.5t42 75t66 53.5t84.5 27l-15 -28v112q0 17 11 28t27 11t27 -11t11 -28v-108l-22 26q39 0 79.5 -11.5t70.5 -34.5q12 -8 15.5 -19t1 -21.5t-10.5 -18t-19 -8.5t-25 8
q-23 15 -51.5 23.5t-57.5 8.5q-36 0 -64.5 -13t-49 -36t-31.5 -55t-11 -71q0 -80 41.5 -128.5t113.5 -48.5q28 0 56.5 8t53.5 24q16 10 27 8.5t18.5 -9.5t9 -19t-3 -22t-15.5 -18q-29 -22 -70 -34.5t-80 -13.5l24 22v-97q0 -17 -10.5 -28t-27.5 -11z" />
    <glyph glyph-name="sterling" unicode="&#xa3;" horiz-adv-x="600" 
d="M79 0q-16 0 -27.5 11.5t-11.5 27.5q0 17 11.5 28t27.5 11h80l-17 -16v277l16 -19h-83q-14 0 -24.5 10t-10.5 24q0 15 10.5 24t24.5 9h83l-16 -18v138q0 65 24.5 111t73.5 71t122 25q51 0 102.5 -16.5t85.5 -45.5q13 -10 16.5 -22.5t-1 -23.5t-13.5 -18t-21 -7.5t-26 9.5
q-32 25 -67.5 36t-74.5 11q-64 0 -96 -32t-32 -94v-140l-10 16h158q15 0 25.5 -9t10.5 -24q0 -14 -10.5 -24t-25.5 -10h-148v-242h287q17 0 28.5 -11t11.5 -28q0 -16 -11.5 -27.5t-28.5 -11.5h-443z" />
    <glyph glyph-name="currency" unicode="&#xa4;" horiz-adv-x="600" 
d="M50 -11q-10 10 -10 23t10 23l58 59q-23 32 -36 70.5t-13 80.5q0 43 12.5 81.5t36.5 69.5l-58 60q-10 10 -10 22.5t10 22.5q9 10 22 10t24 -11l57 -59q30 25 68 38.5t79 13.5t78 -13t68 -37l55 57q10 11 24 11.5t23 -9.5q11 -11 11 -24t-11 -24l-57 -57q24 -32 36.5 -70.5
t12.5 -81.5t-13 -81.5t-37 -70.5l58 -58q10 -11 10 -23.5t-10 -22.5q-9 -9 -22.5 -9t-22.5 10l-57 58q-30 -24 -67 -37.5t-79 -13.5q-41 0 -79 14t-69 37l-57 -58q-10 -10 -22.5 -10.5t-22.5 9.5zM299 74q45 0 81.5 23t58 62t21.5 86q0 48 -21.5 86.5t-58 62t-81.5 22.5
q-44 0 -80.5 -23t-58 -61.5t-21.5 -86.5q0 -47 21.5 -86t58 -62t80.5 -23z" />
    <glyph glyph-name="yen" unicode="&#xa5;" horiz-adv-x="600" 
d="M300 -7q-22 0 -34 12.5t-12 36.5v129h-153q-18 0 -27.5 9t-9.5 25q0 15 9.5 24t27.5 9h153v87h-153q-18 0 -27.5 9t-9.5 24q0 16 9.5 25t27.5 9h127v-16l-197 274q-9 14 -7.5 28.5t12 24t28.5 9.5q15 0 25.5 -6.5t20.5 -22.5l202 -286h-23l201 286q10 16 21 22.5t26 6.5
q18 0 29 -9.5t12 -24t-10 -30.5l-194 -272v16h125q18 0 27.5 -9t9.5 -25q0 -15 -9.5 -24t-27.5 -9h-153v-87h153q18 0 27.5 -9t9.5 -24q0 -16 -9.5 -25t-27.5 -9h-153v-129q0 -49 -46 -49z" />
    <glyph glyph-name="brokenbar" unicode="&#xa6;" horiz-adv-x="270" 
d="M135 365q-22 0 -33.5 12t-11.5 34v255q0 23 11.5 34.5t33.5 11.5t34 -11.5t12 -34.5v-255q0 -46 -46 -46zM135 -187q-22 0 -33.5 12t-11.5 34v255q0 23 11.5 35t33.5 12t34 -12t12 -35v-255q0 -46 -46 -46z" />
    <glyph glyph-name="section" unicode="&#xa7;" horiz-adv-x="551" 
d="M251 -189q-54 0 -100.5 12t-79.5 35q-11 7 -14.5 17.5t-1.5 20.5t9 18t18 10t24 -6q30 -18 69 -28.5t77 -10.5q39 0 67.5 12.5t45 36t16.5 58.5t-18.5 61.5t-68.5 48.5l-113 53q-53 25 -83.5 51t-44 56t-13.5 66q0 43 21.5 81.5t57.5 64.5l-8 -26q-13 14 -21.5 36.5
t-8.5 54.5q0 57 27.5 97t76.5 62t110 22q52 0 97 -12.5t79 -34.5q11 -8 15 -18.5t2 -21t-9.5 -18.5t-18 -9.5t-23.5 6.5q-30 18 -67.5 28.5t-75.5 10.5q-36 0 -64 -12t-44 -36t-16 -58q0 -36 18.5 -61.5t68.5 -49.5l113 -52q53 -25 83.5 -51t43.5 -56t13 -67
q0 -43 -21 -81.5t-57 -63.5l8 26q13 -14 21.5 -37t8.5 -55q0 -55 -28 -95.5t-77.5 -62.5t-113.5 -22zM123 336q0 -35 22 -62.5t80 -55.5l97 -45q35 -17 58 -34.5t36 -34.5l-26 -2q19 18 28.5 40t9.5 46q0 36 -22 64t-80 55l-98 45q-34 17 -57 34.5t-37 33.5l27 2
q-19 -17 -28.5 -39t-9.5 -47z" />
    <glyph glyph-name="dieresis" unicode="&#xa8;" horiz-adv-x="478" 
d="M328 603q-24 0 -37 13t-13 37t13 36.5t37 12.5t37 -12.5t13 -36.5t-12.5 -37t-37.5 -13zM151 603q-24 0 -37.5 13t-13.5 37t13.5 36.5t37.5 12.5t37 -12.5t13 -36.5t-13 -37t-37 -13z" />
    <glyph glyph-name="copyright" unicode="&#xa9;" horiz-adv-x="815" 
d="M408 -9q-77 0 -143 27.5t-115 76.5t-76.5 115t-27.5 143t27.5 143t76.5 114.5t115 76t143 27.5t143 -27.5t114.5 -76t76 -114.5t27.5 -143t-27.5 -143t-76 -115t-114.5 -76.5t-143 -27.5zM408 37q67 0 124 24t99.5 67t66 100.5t23.5 124.5t-23.5 124.5t-66 100
t-99.5 66.5t-124 24t-124.5 -24t-100 -66.5t-66 -100t-23.5 -124.5t23.5 -124.5t66 -100.5t100 -67t124.5 -24zM422 137q-97 0 -153.5 59.5t-56.5 158.5t56.5 156t153.5 57q33 0 66.5 -10t60.5 -29q10 -7 13.5 -16.5t2 -19.5t-8 -16.5t-16 -8t-21.5 5.5q-23 15 -46.5 22
t-45.5 7q-63 0 -99 -39t-36 -110q0 -70 36 -111t99 -41q22 0 45 6.5t48 22.5q14 9 25 5t16.5 -15t3 -23t-14.5 -21q-27 -19 -61 -29.5t-67 -10.5z" />
    <glyph glyph-name="ordfeminine" unicode="&#xaa;" horiz-adv-x="330" 
d="M136 410q-48 0 -79 26t-31 66q0 45 41.5 65t115.5 20h58v-37h-56q-49 0 -72.5 -11.5t-23.5 -35.5q0 -20 14.5 -34t46.5 -14q25 0 43 11t29 31t11 48v57q0 33 -17.5 48t-53.5 15q-19 0 -40 -4t-43 -13q-13 -5 -22 -0.5t-12 13.5t1.5 18.5t16.5 14.5q25 12 51 16t51 4
q43 0 72 -13t43 -38t14 -63v-160q0 -30 -29 -30q-15 0 -22.5 9t-7.5 22v29h-2q-17 -31 -40 -45.5t-57 -14.5z" />
    <glyph glyph-name="guillemotleft" unicode="&#xab;" horiz-adv-x="453" 
d="M192 88q-13 -5 -25.5 -1.5t-19.5 14.5l-81 134q-10 15 -10 30t10 31l79 133q8 13 20.5 16.5t25.5 -2.5q14 -6 19 -20.5t-4 -31.5l-61 -125l61 -126q8 -17 4.5 -32t-18.5 -20zM379 88q-13 -5 -25.5 -1.5t-19.5 14.5l-81 134q-10 15 -10 30t10 31l79 133q8 13 20.5 16.5
t25.5 -2.5q14 -6 19 -20.5t-4 -31.5l-61 -125l61 -126q8 -17 4.5 -32t-18.5 -20z" />
    <glyph glyph-name="logicalnot" unicode="&#xac;" horiz-adv-x="600" 
d="M509 140q-18 0 -27 9.5t-9 26.5v179h-389q-17 0 -26 9t-9 25t9 25t26 9h424q17 0 26.5 -9.5t9.5 -27.5v-210q0 -36 -35 -36z" />
    <glyph glyph-name="uni00AD" unicode="&#xad;" horiz-adv-x="427" 
d="M102 229q-16 0 -27 11t-11 27t11 26.5t27 10.5h223q15 0 26.5 -10.5t11.5 -26.5t-11.5 -27t-26.5 -11h-223z" />
    <glyph glyph-name="registered" unicode="&#xae;" horiz-adv-x="815" 
d="M408 -9q-77 0 -143 27.5t-115 76.5t-76.5 115t-27.5 143t27.5 143t76.5 114.5t115 76t143 27.5t143 -27.5t114.5 -76t76 -114.5t27.5 -143t-27.5 -143t-76 -115t-114.5 -76.5t-143 -27.5zM408 37q67 0 124 24t99.5 67t66 100.5t23.5 124.5t-23.5 124.5t-66 100
t-99.5 66.5t-124 24t-124.5 -24t-100 -66.5t-66 -100t-23.5 -124.5t23.5 -124.5t66 -100.5t100 -67t124.5 -24zM298 136q-37 0 -37 39v345q0 21 11.5 32.5t32.5 11.5h131q68 0 104.5 -33t36.5 -90t-36.5 -87.5t-102.5 -30.5l14 10q31 0 50.5 -12.5t33.5 -50.5l32 -87
q8 -22 -3 -34.5t-31 -12.5q-13 0 -21.5 8t-13.5 21l-38 106q-9 24 -26.5 32.5t-42.5 8.5h-71l14 10v-147q0 -39 -37 -39zM334 369h92q40 0 60.5 16.5t20.5 52.5q0 35 -20 52t-61 17h-92v-138z" />
    <glyph glyph-name="macron" unicode="&#xaf;" horiz-adv-x="507" 
d="M132 623q-32 0 -32 30q0 14 8 21.5t24 7.5h243q32 0 32 -29q0 -14 -8.5 -22t-23.5 -8h-243z" />
    <glyph glyph-name="degree" unicode="&#xb0;" horiz-adv-x="373" 
d="M187 415q-43 0 -77 20t-54 54t-20 76t20 75.5t54 53.5t77 20t76.5 -19.5t53 -53t19.5 -76.5q0 -42 -19.5 -76.5t-53 -54t-76.5 -19.5zM187 474q38 0 62.5 25.5t24.5 65.5q0 39 -24.5 65t-62.5 26q-39 0 -63.5 -26t-24.5 -65q0 -40 24.5 -65.5t63.5 -25.5z" />
    <glyph glyph-name="plusminus" unicode="&#xb1;" horiz-adv-x="600" 
d="M300 123q-17 0 -26 9.5t-9 26.5v137h-180q-18 0 -27 9t-9 25t9 25t27 9h180v137q0 17 9 26.5t27 9.5q17 0 25.5 -9.5t8.5 -26.5v-137h181q17 0 26 -9t9 -25t-9 -25t-26 -9h-181v-137q0 -17 -8.5 -26.5t-26.5 -9.5zM84 0q-17 0 -26 9t-9 25t9 25t26 9h432q17 0 26 -9
t9 -25t-9 -25t-26 -9h-432z" />
    <glyph glyph-name="uni00B2" unicode="&#xb2;" horiz-adv-x="380" 
d="M87 282q-16 0 -26.5 9t-10.5 24q0 12 5.5 22t14.5 19l116 124q27 30 39 54t12 48q0 31 -17 47t-50 16q-20 0 -42.5 -7.5t-41.5 -20.5q-14 -9 -25.5 -5.5t-17.5 13.5t-3.5 23t16.5 22q26 19 60 29t68 10q42 0 72 -14.5t46 -41t16 -62.5q0 -34 -15.5 -66t-50.5 -69
l-113 -119v10h171q33 0 33 -32q0 -16 -8.5 -24.5t-24.5 -8.5h-223z" />
    <glyph glyph-name="uni00B3" unicode="&#xb3;" horiz-adv-x="380" 
d="M186 278q-39 0 -73 10t-60 28q-13 10 -16 22.5t3 23t17.5 14t27.5 -6.5q22 -14 45.5 -20.5t48.5 -6.5q35 0 57 15.5t22 48.5q0 31 -21.5 44t-59.5 13h-48q-17 0 -26 8.5t-9 24.5q0 15 9 23.5t26 8.5h37q38 0 59.5 15t21.5 45q0 26 -19 41.5t-54 15.5q-20 0 -42.5 -7
t-41.5 -19q-16 -10 -28.5 -7t-18.5 13.5t-3.5 23t16.5 21.5q26 19 60.5 29t68.5 10q63 0 100 -30t37 -80q0 -41 -25 -68.5t-60 -36.5v10q43 -6 69.5 -33t26.5 -73q0 -38 -19.5 -65t-52 -41t-75.5 -14z" />
    <glyph glyph-name="acute" unicode="&#xb4;" horiz-adv-x="361" 
d="M154 557q-8 -11 -18.5 -13t-20.5 3.5t-14 15.5t2 23l82 159q7 16 19 20.5t24.5 1.5t21.5 -11.5t10.5 -21t-6.5 -25.5z" />
    <glyph glyph-name="uni00B5" unicode="&#xb5;" horiz-adv-x="600" 
d="M135 -187q-21 0 -33 12t-12 34v589q0 23 12 34.5t33 11.5q22 0 34 -11.5t12 -34.5v-261q0 -62 25 -91t80 -29q59 0 96.5 39.5t37.5 105.5v236q0 23 12 34.5t34 11.5q21 0 33 -11.5t12 -34.5v-408q0 -47 -44 -47q-21 0 -32.5 11.5t-11.5 29.5v76h7q-15 -58 -55 -88.5
t-91 -30.5q-42 0 -73 15.5t-48 56.5h11l5 -203q2 -23 -9.5 -35t-34.5 -12z" />
    <glyph glyph-name="paragraph" unicode="&#xb6;" horiz-adv-x="596" 
d="M280 -187q-17 0 -26 9.5t-9 26.5v455q-61 0 -106.5 25.5t-70.5 71t-25 104.5t25 104t71 70.5t107 25.5h220q22 0 34 -12t12 -34v-810q0 -36 -36 -36q-17 0 -26 9.5t-9 26.5v788h-125v-788q0 -36 -36 -36z" />
    <glyph glyph-name="periodcentered" unicode="&#xb7;" horiz-adv-x="233" 
d="M117 208q-26 0 -43 16.5t-17 42.5t17 42t43 16q28 0 43.5 -16t15.5 -42t-15.5 -42.5t-43.5 -16.5z" />
    <glyph glyph-name="cedilla" unicode="&#xb8;" horiz-adv-x="407" 
d="M193 -193q-19 0 -38.5 2.5t-35.5 9.5q-12 4 -16.5 14t-1.5 19.5t12 14t21 -0.5q12 -4 25 -6.5t29 -2.5q27 0 42.5 9t15.5 27q0 12 -9 19t-29 7q-8 0 -15.5 -0.5t-16.5 -3.5q-8 -2 -13.5 -2t-10.5 4q-4 3 -5 9t0 16l12 78h55l-13 -76l-26 8q12 3 24 5t22 2q37 0 61 -18
t24 -51q0 -37 -31.5 -60t-81.5 -23z" />
    <glyph glyph-name="uni00B9" unicode="&#xb9;" horiz-adv-x="380" 
d="M111 282q-33 0 -33 33q0 15 8.5 23.5t24.5 8.5h67v291h33l-83 -50q-16 -10 -29.5 -6t-19.5 15t-3 24t19 23l82 49q10 7 20.5 11t21.5 4t18.5 -4.5t11 -12t3.5 -18.5v-326h50q34 0 34 -32q0 -16 -9 -24.5t-25 -8.5h-191z" />
    <glyph glyph-name="ordmasculine" unicode="&#xba;" horiz-adv-x="342" 
d="M171 411q-43 0 -76.5 18.5t-53 53t-19.5 80.5q0 47 19.5 80.5t53 52t76.5 18.5t76.5 -18.5t53 -52t19.5 -80.5q0 -46 -19.5 -80.5t-53 -53t-76.5 -18.5zM171 461q40 0 62.5 26t22.5 76t-22.5 76t-62.5 26q-39 0 -62 -26t-23 -76t23 -76t62 -26z" />
    <glyph glyph-name="guillemotright" unicode="&#xbb;" horiz-adv-x="453" 
d="M74 88q-14 5 -18 20t4 32l62 126l-62 125q-8 17 -3 31.5t19 20.5q13 6 25.5 2.5t19.5 -16.5l80 -133q9 -16 9 -30.5t-9 -30.5l-81 -134q-7 -11 -20 -14.5t-26 1.5zM261 88q-14 5 -18 20t4 32l62 126l-62 125q-8 17 -3 31.5t19 20.5q13 6 25.5 2.5t19.5 -16.5l80 -133
q9 -16 9 -30.5t-9 -30.5l-81 -134q-7 -11 -20 -14.5t-26 1.5z" />
    <glyph glyph-name="onequarter" unicode="&#xbc;" horiz-adv-x="898" 
d="M111 282q-33 0 -33 33q0 15 8.5 23.5t24.5 8.5h67v291h33l-83 -50q-16 -10 -29.5 -6t-19.5 15t-3 24t19 23l82 49q10 7 20.5 11t21.5 4t18.5 -4.5t11 -12t3.5 -18.5v-326h50q34 0 34 -32q0 -16 -9 -24.5t-25 -8.5h-191zM312 2q-8 -13 -18.5 -17t-20.5 -1.5t-17.5 10
t-9.5 19.5t6 25l384 665q8 13 18.5 17t21 1.5t18 -10.5t9 -19.5t-6.5 -24.5zM780 -4q-18 0 -28 9.5t-10 26.5v48h-156q-18 0 -28 10t-10 24q0 11 5.5 21.5t13.5 22.5l166 243q5 7 16 16.5t30 9.5q18 0 28 -10.5t10 -29.5v-242h32q14 0 22.5 -8t8.5 -23q0 -18 -8.5 -26
t-22.5 -8h-32v-48q0 -17 -10 -26.5t-27 -9.5zM742 145v195h18l-146 -213v18h128z" />
    <glyph glyph-name="onehalf" unicode="&#xbd;" horiz-adv-x="942" 
d="M111 282q-33 0 -33 33q0 15 8.5 23.5t24.5 8.5h67v291h33l-83 -50q-16 -10 -29.5 -6t-19.5 15t-3 24t19 23l82 49q10 7 20.5 11t21.5 4t18.5 -4.5t11 -12t3.5 -18.5v-326h50q34 0 34 -32q0 -16 -9 -24.5t-25 -8.5h-191zM312 2q-8 -13 -18.5 -17t-20.5 -1.5t-17.5 10
t-9.5 19.5t6 25l384 665q8 13 18.5 17t21 1.5t18 -10.5t9 -19.5t-6.5 -24.5zM649 0q-16 0 -26.5 9t-10.5 24q0 12 5.5 22t14.5 19l116 124q27 30 39 54t12 48q0 31 -17 47t-50 16q-20 0 -42.5 -7.5t-41.5 -20.5q-14 -9 -25.5 -5.5t-17.5 13.5t-3.5 23t16.5 22q26 19 60 29
t68 10q42 0 72 -14.5t46 -41t16 -62.5q0 -34 -15.5 -66t-50.5 -69l-113 -119v10h171q33 0 33 -32q0 -16 -8.5 -24.5t-24.5 -8.5h-223z" />
    <glyph glyph-name="threequarters" unicode="&#xbe;" horiz-adv-x="898" 
d="M186 278q-39 0 -73 10t-60 28q-13 10 -16 22.5t3 23t17.5 14t27.5 -6.5q22 -14 45.5 -20.5t48.5 -6.5q35 0 57 15.5t22 48.5q0 31 -21.5 44t-59.5 13h-48q-17 0 -26 8.5t-9 24.5q0 15 9 23.5t26 8.5h37q38 0 59.5 15t21.5 45q0 26 -19 41.5t-54 15.5q-20 0 -42.5 -7
t-41.5 -19q-16 -10 -28.5 -7t-18.5 13.5t-3.5 23t16.5 21.5q26 19 60.5 29t68.5 10q63 0 100 -30t37 -80q0 -41 -25 -68.5t-60 -36.5v10q43 -6 69.5 -33t26.5 -73q0 -38 -19.5 -65t-52 -41t-75.5 -14zM312 2q-8 -13 -18.5 -17t-20.5 -1.5t-17.5 10t-9.5 19.5t6 25l384 665
q8 13 18.5 17t21 1.5t18 -10.5t9 -19.5t-6.5 -24.5zM780 -4q-18 0 -28 9.5t-10 26.5v48h-156q-18 0 -28 10t-10 24q0 11 5.5 21.5t13.5 22.5l166 243q5 7 16 16.5t30 9.5q18 0 28 -10.5t10 -29.5v-242h32q14 0 22.5 -8t8.5 -23q0 -18 -8.5 -26t-22.5 -8h-32v-48
q0 -17 -10 -26.5t-27 -9.5zM742 145v195h18l-146 -213v18h128z" />
    <glyph glyph-name="questiondown" unicode="&#xbf;" horiz-adv-x="447" 
d="M219 -189q-59 0 -103 19t-68.5 53t-24.5 78q0 43 19.5 81t71.5 87q32 29 50.5 53t27.5 46.5t12 45.5q2 13 9.5 20.5t21.5 7.5t22 -9t8 -26q0 -28 -7.5 -55.5t-25.5 -55.5t-51 -61q-38 -38 -51.5 -65t-13.5 -56q0 -37 28.5 -60t78.5 -23q44 0 82.5 12.5t73.5 36.5
q17 10 31 9.5t23 -8.5t11.5 -20t-3.5 -25.5t-23 -23.5q-40 -28 -90.5 -44.5t-108.5 -16.5zM236 373q-27 0 -43 16.5t-16 41.5q0 27 16 43.5t43 16.5q28 0 43.5 -16.5t15.5 -43.5q0 -25 -15.5 -41.5t-43.5 -16.5z" />
    <glyph glyph-name="Agrave" unicode="&#xc0;" horiz-adv-x="733" 
d="M75 -7q-18 0 -28.5 8t-12.5 22t6 31l273 618q9 21 23 30.5t31 9.5t30.5 -9.5t23.5 -30.5l273 -618q8 -17 6.5 -31.5t-11.5 -22t-28 -7.5q-20 0 -32 10.5t-21 30.5l-71 166l43 -24h-428l43 24l-71 -166q-9 -22 -20 -31.5t-29 -9.5zM365 600l-156 -369l-24 21h362l-23 -21
l-157 369h-2zM329 770l-102 118q-10 12 -9.5 23.5t8 20t19 12.5t24 1t21.5 -16l86 -127q7 -11 4.5 -21t-11.5 -16.5t-20 -5.5t-20 11z" />
    <glyph glyph-name="Aacute" unicode="&#xc1;" horiz-adv-x="733" 
d="M75 -7q-18 0 -28.5 8t-12.5 22t6 31l273 618q9 21 23 30.5t31 9.5t30.5 -9.5t23.5 -30.5l273 -618q8 -17 6.5 -31.5t-11.5 -22t-28 -7.5q-20 0 -32 10.5t-21 30.5l-71 166l43 -24h-428l43 24l-71 -166q-9 -22 -20 -31.5t-29 -9.5zM365 600l-156 -369l-24 21h362l-23 -21
l-157 369h-2zM406 770q-9 -10 -20.5 -11t-20.5 5.5t-11.5 16.5t4.5 21l87 127q9 13 21 16t24 -1t19.5 -12.5t8 -20t-9.5 -23.5z" />
    <glyph glyph-name="Acircumflex" unicode="&#xc2;" horiz-adv-x="733" 
d="M75 -7q-18 0 -28.5 8t-12.5 22t6 31l273 618q9 21 23 30.5t31 9.5t30.5 -9.5t23.5 -30.5l273 -618q8 -17 6.5 -31.5t-11.5 -22t-28 -7.5q-20 0 -32 10.5t-21 30.5l-71 166l43 -24h-428l43 24l-71 -166q-9 -22 -20 -31.5t-29 -9.5zM365 600l-156 -369l-24 21h362l-23 -21
l-157 369h-2zM274 769q-10 -11 -21.5 -12t-20.5 5t-11.5 15.5t5.5 21.5l85 117q11 17 25 24t31 7t31 -7t26 -24l84 -117q8 -12 5.5 -21.5t-11 -15.5t-20 -5t-21.5 12l-94 111z" />
    <glyph glyph-name="Atilde" unicode="&#xc3;" horiz-adv-x="733" 
d="M75 -7q-18 0 -28.5 8t-12.5 22t6 31l273 618q9 21 23 30.5t31 9.5t30.5 -9.5t23.5 -30.5l273 -618q8 -17 6.5 -31.5t-11.5 -22t-28 -7.5q-20 0 -32 10.5t-21 30.5l-71 166l43 -24h-428l43 24l-71 -166q-9 -22 -20 -31.5t-29 -9.5zM365 600l-156 -369l-24 21h362l-23 -21
l-157 369h-2zM182 777q-12 1 -19.5 9t-4.5 22q11 53 43 82.5t77 29.5q28 0 52 -11t46 -25.5t42.5 -25.5t40.5 -11q26 0 43 16t22 42q3 12 10.5 17t17.5 4q12 0 19.5 -8t4.5 -22q-11 -53 -42 -83t-77 -30q-28 0 -52.5 11.5t-46.5 26t-42.5 25.5t-40.5 11q-26 0 -43 -16
t-22 -42q-3 -11 -10 -16.5t-18 -5.5z" />
    <glyph glyph-name="Adieresis" unicode="&#xc4;" horiz-adv-x="733" 
d="M75 -7q-18 0 -28.5 8t-12.5 22t6 31l273 618q9 21 23 30.5t31 9.5t30.5 -9.5t23.5 -30.5l273 -618q8 -17 6.5 -31.5t-11.5 -22t-28 -7.5q-20 0 -32 10.5t-21 30.5l-71 166l43 -24h-428l43 24l-71 -166q-9 -22 -20 -31.5t-29 -9.5zM365 600l-156 -369l-24 21h362l-23 -21
l-157 369h-2zM456 799q-24 0 -37 13t-13 37q0 23 13 36t37 13t37 -13t13 -36q0 -24 -12.5 -37t-37.5 -13zM279 799q-24 0 -37.5 13t-13.5 37q0 23 13.5 36t37.5 13t37 -13t13 -36q0 -24 -13 -37t-37 -13z" />
    <glyph glyph-name="Aring" unicode="&#xc5;" horiz-adv-x="733" 
d="M75 -7q-18 0 -28.5 8t-12.5 22t6 31l273 618q9 21 23 30.5t31 9.5t30.5 -9.5t23.5 -30.5l273 -618q8 -17 6.5 -31.5t-11.5 -22t-28 -7.5q-20 0 -32 10.5t-21 30.5l-71 166l43 -24h-428l43 24l-71 -166q-9 -22 -20 -31.5t-29 -9.5zM365 600l-156 -369l-24 21h362l-23 -21
l-157 369h-2zM367 757q-33 0 -60.5 16t-43.5 42.5t-16 59.5t16 59.5t43.5 42t60.5 15.5q34 0 61 -15.5t43 -42t16 -59.5t-16 -59.5t-43 -42.5t-61 -16zM367 804q31 0 50.5 20.5t19.5 50.5t-19.5 50t-50.5 20q-30 0 -50 -20t-20 -50t20 -50.5t50 -20.5z" />
    <glyph glyph-name="AE" unicode="&#xc6;" horiz-adv-x="984" 
d="M45 -7q-21 0 -31.5 8.5t-10.5 22t8 28.5l383 626q8 14 20 20.5t28 6.5h457q20 0 30.5 -9.5t10.5 -27.5q0 -19 -10.5 -29t-30.5 -10h-414l21 30l61 -288l-32 25h344q20 0 30 -10t10 -28q0 -19 -10 -28.5t-30 -9.5h-328l22 24l64 -297l-36 29h298q20 0 30.5 -9.5
t10.5 -28.5t-10.5 -28.5t-30.5 -9.5h-300q-36 0 -44 36l-36 167l33 -27h-390l37 25l-106 -178q-9 -15 -20 -22.5t-28 -7.5zM433 597l-218 -367l-9 22h325l-17 -24l-79 369h-2z" />
    <glyph glyph-name="Ccedilla" unicode="&#xc7;" horiz-adv-x="675" 
d="M395 -9q-105 0 -180 44t-115.5 125.5t-40.5 192.5q0 83 23 149.5t66 114t105.5 72.5t141.5 25q60 0 115.5 -17t95.5 -48q16 -11 21 -25t1.5 -26.5t-13 -21t-23.5 -9t-30 10.5q-35 27 -76.5 39.5t-88.5 12.5q-77 0 -130.5 -32.5t-81 -94t-27.5 -150.5q0 -88 27.5 -150.5
t81 -95t130.5 -32.5q47 0 89.5 13t78.5 40q16 11 29.5 10t22.5 -8.5t12.5 -20t-0.5 -25.5t-18 -23q-41 -35 -97.5 -52.5t-118.5 -17.5zM389 -193q-19 0 -38.5 2.5t-35.5 9.5q-12 4 -16.5 14t-1.5 19.5t12 14t21 -0.5q12 -4 25 -6.5t29 -2.5q27 0 42.5 9t15.5 27q0 12 -9 19
t-29 7q-8 0 -15.5 -0.5t-16.5 -3.5q-8 -2 -13.5 -2t-10.5 4q-4 3 -5 9t0 16l12 78h55l-13 -76l-26 8q12 3 24 5t22 2q37 0 61 -18t24 -51q0 -37 -31.5 -60t-81.5 -23z" />
    <glyph glyph-name="Egrave" unicode="&#xc8;" horiz-adv-x="586" 
d="M135 0q-24 0 -37 13t-13 37v605q0 24 13 37t37 13h368q19 0 29.5 -9.5t10.5 -27.5q0 -19 -10.5 -29t-29.5 -10h-328v-233h307q19 0 29 -10t10 -28q0 -19 -10 -28.5t-29 -9.5h-307v-244h328q19 0 29.5 -9.5t10.5 -28.5t-10.5 -28.5t-29.5 -9.5h-368zM287 770l-102 118
q-10 12 -9.5 23.5t8 20t19 12.5t24 1t21.5 -16l86 -127q7 -11 4.5 -21t-11.5 -16.5t-20 -5.5t-20 11z" />
    <glyph glyph-name="Eacute" unicode="&#xc9;" horiz-adv-x="586" 
d="M135 0q-24 0 -37 13t-13 37v605q0 24 13 37t37 13h368q19 0 29.5 -9.5t10.5 -27.5q0 -19 -10.5 -29t-29.5 -10h-328v-233h307q19 0 29 -10t10 -28q0 -19 -10 -28.5t-29 -9.5h-307v-244h328q19 0 29.5 -9.5t10.5 -28.5t-10.5 -28.5t-29.5 -9.5h-368zM364 770
q-9 -10 -20.5 -11t-20.5 5.5t-11.5 16.5t4.5 21l87 127q9 13 21 16t24 -1t19.5 -12.5t8 -20t-9.5 -23.5z" />
    <glyph glyph-name="Ecircumflex" unicode="&#xca;" horiz-adv-x="586" 
d="M135 0q-24 0 -37 13t-13 37v605q0 24 13 37t37 13h368q19 0 29.5 -9.5t10.5 -27.5q0 -19 -10.5 -29t-29.5 -10h-328v-233h307q19 0 29 -10t10 -28q0 -19 -10 -28.5t-29 -9.5h-307v-244h328q19 0 29.5 -9.5t10.5 -28.5t-10.5 -28.5t-29.5 -9.5h-368zM232 769
q-10 -11 -21.5 -12t-20.5 5t-11.5 15.5t5.5 21.5l85 117q11 17 25 24t31 7t31 -7t26 -24l84 -117q8 -12 5.5 -21.5t-11 -15.5t-20 -5t-21.5 12l-94 111z" />
    <glyph glyph-name="Edieresis" unicode="&#xcb;" horiz-adv-x="586" 
d="M135 0q-24 0 -37 13t-13 37v605q0 24 13 37t37 13h368q19 0 29.5 -9.5t10.5 -27.5q0 -19 -10.5 -29t-29.5 -10h-328v-233h307q19 0 29 -10t10 -28q0 -19 -10 -28.5t-29 -9.5h-307v-244h328q19 0 29.5 -9.5t10.5 -28.5t-10.5 -28.5t-29.5 -9.5h-368zM414 799q-24 0 -37 13
t-13 37q0 23 13 36t37 13t37 -13t13 -36q0 -24 -12.5 -37t-37.5 -13zM237 799q-24 0 -37.5 13t-13.5 37q0 23 13.5 36t37.5 13t37 -13t13 -36q0 -24 -13 -37t-37 -13z" />
    <glyph glyph-name="Igrave" unicode="&#xcc;" horiz-adv-x="262" 
d="M131 -7q-22 0 -34 12.5t-12 35.5v623q0 24 12 36t34 12q23 0 35 -12t12 -36v-623q0 -23 -11.5 -35.5t-35.5 -12.5zM93 770l-102 118q-10 12 -9.5 23.5t8 20t19 12.5t24 1t21.5 -16l86 -127q7 -11 4.5 -21t-11.5 -16.5t-20 -5.5t-20 11z" />
    <glyph glyph-name="Iacute" unicode="&#xcd;" horiz-adv-x="262" 
d="M131 -7q-22 0 -34 12.5t-12 35.5v623q0 24 12 36t34 12q23 0 35 -12t12 -36v-623q0 -23 -11.5 -35.5t-35.5 -12.5zM170 770q-9 -10 -20.5 -11t-20.5 5.5t-11.5 16.5t4.5 21l87 127q9 13 21 16t24 -1t19.5 -12.5t8 -20t-9.5 -23.5z" />
    <glyph glyph-name="Icircumflex" unicode="&#xce;" horiz-adv-x="262" 
d="M131 -7q-22 0 -34 12.5t-12 35.5v623q0 24 12 36t34 12q23 0 35 -12t12 -36v-623q0 -23 -11.5 -35.5t-35.5 -12.5zM38 769q-10 -11 -21.5 -12t-20.5 5t-11.5 15.5t5.5 21.5l85 117q11 17 25 24t31 7t31 -7t26 -24l84 -117q8 -12 5.5 -21.5t-11 -15.5t-20 -5t-21.5 12
l-94 111z" />
    <glyph glyph-name="Idieresis" unicode="&#xcf;" horiz-adv-x="262" 
d="M131 -7q-22 0 -34 12.5t-12 35.5v623q0 24 12 36t34 12q23 0 35 -12t12 -36v-623q0 -23 -11.5 -35.5t-35.5 -12.5zM220 799q-24 0 -37 13t-13 37q0 23 13 36t37 13t37 -13t13 -36q0 -24 -12.5 -37t-37.5 -13zM43 799q-24 0 -37.5 13t-13.5 37q0 23 13.5 36t37.5 13
t37 -13t13 -36q0 -24 -13 -37t-37 -13z" />
    <glyph glyph-name="Eth" unicode="&#xd0;" horiz-adv-x="747" 
d="M135 0q-24 0 -37 13t-13 37v605q0 24 13 37t37 13h193q173 0 266.5 -90.5t93.5 -261.5q0 -85 -24 -151t-70 -110.5t-112.5 -68t-153.5 -23.5h-193zM178 79h144q68 0 118 17t83.5 51t50.5 85.5t17 120.5q0 137 -67.5 205t-201.5 68h-144v-547zM26 322q-18 0 -27.5 9.5
t-9.5 26.5t9.5 26t27.5 9h317q17 0 27 -8.5t10 -26.5q0 -17 -10 -26.5t-27 -9.5h-317z" />
    <glyph glyph-name="Ntilde" unicode="&#xd1;" horiz-adv-x="741" 
d="M128 -7q-20 0 -31.5 12t-11.5 33v627q0 23 11 35t29 12q17 0 26 -6t20 -21l424 -562h-25v544q0 22 11.5 33.5t32.5 11.5t32 -11.5t11 -33.5v-629q0 -21 -10.5 -33t-27.5 -12q-16 0 -26.5 6.5t-21.5 21.5l-423 562h23v-545q0 -21 -11 -33t-32 -12zM186 777q-12 1 -19.5 9
t-4.5 22q11 53 43 82.5t77 29.5q28 0 52 -11t46 -25.5t42.5 -25.5t40.5 -11q26 0 43 16t22 42q3 12 10.5 17t17.5 4q12 0 19.5 -8t4.5 -22q-11 -53 -42 -83t-77 -30q-28 0 -52.5 11.5t-46.5 26t-42.5 25.5t-40.5 11q-26 0 -43 -16t-22 -42q-3 -11 -10 -16.5t-18 -5.5z" />
    <glyph glyph-name="Ograve" unicode="&#xd2;" horiz-adv-x="771" 
d="M386 -9q-100 0 -173 44.5t-113.5 126t-40.5 191.5q0 83 23 149.5t65.5 114t103 72.5t135.5 25q100 0 173 -44t113 -125t40 -191q0 -83 -23 -150t-65.5 -115t-102.5 -73t-135 -25zM386 73q72 0 123 33t78.5 96t27.5 151q0 133 -59.5 206t-169.5 73q-72 0 -123.5 -32.5
t-78.5 -95t-27 -151.5q0 -132 60 -206t169 -74zM347 770l-102 118q-10 12 -9.5 23.5t8 20t19 12.5t24 1t21.5 -16l86 -127q7 -11 4.5 -21t-11.5 -16.5t-20 -5.5t-20 11z" />
    <glyph glyph-name="Oacute" unicode="&#xd3;" horiz-adv-x="771" 
d="M386 -9q-100 0 -173 44.5t-113.5 126t-40.5 191.5q0 83 23 149.5t65.5 114t103 72.5t135.5 25q100 0 173 -44t113 -125t40 -191q0 -83 -23 -150t-65.5 -115t-102.5 -73t-135 -25zM386 73q72 0 123 33t78.5 96t27.5 151q0 133 -59.5 206t-169.5 73q-72 0 -123.5 -32.5
t-78.5 -95t-27 -151.5q0 -132 60 -206t169 -74zM424 770q-9 -10 -20.5 -11t-20.5 5.5t-11.5 16.5t4.5 21l87 127q9 13 21 16t24 -1t19.5 -12.5t8 -20t-9.5 -23.5z" />
    <glyph glyph-name="Ocircumflex" unicode="&#xd4;" horiz-adv-x="771" 
d="M386 -9q-100 0 -173 44.5t-113.5 126t-40.5 191.5q0 83 23 149.5t65.5 114t103 72.5t135.5 25q100 0 173 -44t113 -125t40 -191q0 -83 -23 -150t-65.5 -115t-102.5 -73t-135 -25zM386 73q72 0 123 33t78.5 96t27.5 151q0 133 -59.5 206t-169.5 73q-72 0 -123.5 -32.5
t-78.5 -95t-27 -151.5q0 -132 60 -206t169 -74zM292 769q-10 -11 -21.5 -12t-20.5 5t-11.5 15.5t5.5 21.5l85 117q11 17 25 24t31 7t31 -7t26 -24l84 -117q8 -12 5.5 -21.5t-11 -15.5t-20 -5t-21.5 12l-94 111z" />
    <glyph glyph-name="Otilde" unicode="&#xd5;" horiz-adv-x="771" 
d="M386 -9q-100 0 -173 44.5t-113.5 126t-40.5 191.5q0 83 23 149.5t65.5 114t103 72.5t135.5 25q100 0 173 -44t113 -125t40 -191q0 -83 -23 -150t-65.5 -115t-102.5 -73t-135 -25zM386 73q72 0 123 33t78.5 96t27.5 151q0 133 -59.5 206t-169.5 73q-72 0 -123.5 -32.5
t-78.5 -95t-27 -151.5q0 -132 60 -206t169 -74zM200 777q-12 1 -19.5 9t-4.5 22q11 53 43 82.5t77 29.5q28 0 52 -11t46 -25.5t42.5 -25.5t40.5 -11q26 0 43 16t22 42q3 12 10.5 17t17.5 4q12 0 19.5 -8t4.5 -22q-11 -53 -42 -83t-77 -30q-28 0 -52.5 11.5t-46.5 26
t-42.5 25.5t-40.5 11q-26 0 -43 -16t-22 -42q-3 -11 -10 -16.5t-18 -5.5z" />
    <glyph glyph-name="Odieresis" unicode="&#xd6;" horiz-adv-x="771" 
d="M386 -9q-100 0 -173 44.5t-113.5 126t-40.5 191.5q0 83 23 149.5t65.5 114t103 72.5t135.5 25q100 0 173 -44t113 -125t40 -191q0 -83 -23 -150t-65.5 -115t-102.5 -73t-135 -25zM386 73q72 0 123 33t78.5 96t27.5 151q0 133 -59.5 206t-169.5 73q-72 0 -123.5 -32.5
t-78.5 -95t-27 -151.5q0 -132 60 -206t169 -74zM474 799q-24 0 -37 13t-13 37q0 23 13 36t37 13t37 -13t13 -36q0 -24 -12.5 -37t-37.5 -13zM297 799q-24 0 -37.5 13t-13.5 37q0 23 13.5 36t37.5 13t37 -13t13 -36q0 -24 -13 -37t-37 -13z" />
    <glyph glyph-name="multiply" unicode="&#xd7;" horiz-adv-x="600" 
d="M134 71q-12 -12 -25.5 -11t-23 10.5t-10 23t11.5 25.5l165 166l-168 168q-10 10 -11.5 21t3.5 20t14.5 14.5t20.5 4t22 -11.5l167 -168l167 168q13 12 26.5 11t23.5 -10.5t11 -22.5t-12 -27l-168 -167l165 -166q10 -10 11.5 -21t-3.5 -20t-14 -14t-20 -4t-21 11l-166 166
z" />
    <glyph glyph-name="Oslash" unicode="&#xd8;" horiz-adv-x="771" 
d="M386 -9q-100 0 -173 44.5t-113.5 126t-40.5 191.5q0 83 23 149.5t65.5 114t103 72.5t135.5 25q100 0 173 -44t113 -125t40 -191q0 -83 -23 -150t-65.5 -115t-102.5 -73t-135 -25zM386 73q72 0 123 33t78.5 96t27.5 151q0 133 -59.5 206t-169.5 73q-72 0 -123.5 -32.5
t-78.5 -95t-27 -151.5q0 -132 60 -206t169 -74zM207 -27q-8 -12 -18.5 -16t-21.5 -1t-19 11t-9.5 20t6.5 25l42 71l26 45l288 494l21 37l43 73q7 12 17.5 16t22 1t19.5 -11t9.5 -19.5t-6.5 -25.5l-42 -71l-27 -45l-288 -493l-21 -37z" />
    <glyph glyph-name="Ugrave" unicode="&#xd9;" horiz-adv-x="731" 
d="M366 -9q-70 0 -123.5 18.5t-89.5 55t-54.5 91t-18.5 126.5v383q0 24 12 35.5t34 11.5q23 0 35 -11.5t12 -35.5v-380q0 -107 49 -159.5t144 -52.5t144 52.5t49 159.5v380q0 24 12 35.5t34 11.5t34 -11.5t12 -35.5v-383q0 -95 -32.5 -160t-96 -98t-156.5 -33zM328 770
l-102 118q-10 12 -9.5 23.5t8 20t19 12.5t24 1t21.5 -16l86 -127q7 -11 4.5 -21t-11.5 -16.5t-20 -5.5t-20 11z" />
    <glyph glyph-name="Uacute" unicode="&#xda;" horiz-adv-x="731" 
d="M366 -9q-70 0 -123.5 18.5t-89.5 55t-54.5 91t-18.5 126.5v383q0 24 12 35.5t34 11.5q23 0 35 -11.5t12 -35.5v-380q0 -107 49 -159.5t144 -52.5t144 52.5t49 159.5v380q0 24 12 35.5t34 11.5t34 -11.5t12 -35.5v-383q0 -95 -32.5 -160t-96 -98t-156.5 -33zM405 770
q-9 -10 -20.5 -11t-20.5 5.5t-11.5 16.5t4.5 21l87 127q9 13 21 16t24 -1t19.5 -12.5t8 -20t-9.5 -23.5z" />
    <glyph glyph-name="Ucircumflex" unicode="&#xdb;" horiz-adv-x="731" 
d="M366 -9q-70 0 -123.5 18.5t-89.5 55t-54.5 91t-18.5 126.5v383q0 24 12 35.5t34 11.5q23 0 35 -11.5t12 -35.5v-380q0 -107 49 -159.5t144 -52.5t144 52.5t49 159.5v380q0 24 12 35.5t34 11.5t34 -11.5t12 -35.5v-383q0 -95 -32.5 -160t-96 -98t-156.5 -33zM273 769
q-10 -11 -21.5 -12t-20.5 5t-11.5 15.5t5.5 21.5l85 117q11 17 25 24t31 7t31 -7t26 -24l84 -117q8 -12 5.5 -21.5t-11 -15.5t-20 -5t-21.5 12l-94 111z" />
    <glyph glyph-name="Udieresis" unicode="&#xdc;" horiz-adv-x="731" 
d="M366 -9q-70 0 -123.5 18.5t-89.5 55t-54.5 91t-18.5 126.5v383q0 24 12 35.5t34 11.5q23 0 35 -11.5t12 -35.5v-380q0 -107 49 -159.5t144 -52.5t144 52.5t49 159.5v380q0 24 12 35.5t34 11.5t34 -11.5t12 -35.5v-383q0 -95 -32.5 -160t-96 -98t-156.5 -33zM455 799
q-24 0 -37 13t-13 37q0 23 13 36t37 13t37 -13t13 -36q0 -24 -12.5 -37t-37.5 -13zM278 799q-24 0 -37.5 13t-13.5 37q0 23 13.5 36t37.5 13t37 -13t13 -36q0 -24 -13 -37t-37 -13z" />
    <glyph glyph-name="Yacute" unicode="&#xdd;" horiz-adv-x="601" 
d="M300 -7q-22 0 -34 12.5t-12 36.5v323l20 -62l-248 344q-10 14 -9.5 29.5t11.5 25.5t30 10q15 0 27 -7t23 -23l206 -284h-23l206 284q11 17 22 23.5t28 6.5q18 0 28.5 -9.5t11 -24.5t-11.5 -31l-248 -344l20 62v-323q0 -49 -47 -49zM339 770q-9 -10 -20.5 -11t-20.5 5.5
t-11.5 16.5t4.5 21l87 127q9 13 21 16t24 -1t19.5 -12.5t8 -20t-9.5 -23.5z" />
    <glyph glyph-name="Thorn" unicode="&#xde;" horiz-adv-x="639" 
d="M131 -4q-22 0 -34 12.5t-12 35.5v618q0 23 12.5 35t34.5 12t34 -11.5t12 -31.5v-86h193q114 0 175.5 -56t61.5 -158q0 -101 -61.5 -157.5t-175.5 -56.5h-193v-108q0 -23 -11.5 -35.5t-35.5 -12.5zM178 228h181q78 0 118 35t40 103t-40 103t-118 35h-181v-276z" />
    <glyph glyph-name="germandbls" unicode="&#xdf;" horiz-adv-x="624" 
d="M411 -9q-43 0 -87.5 12t-79.5 36q-12 7 -16 18t-2 22t9.5 19t18.5 9.5t24 -6.5q33 -21 68.5 -30t65.5 -9q46 0 72 19.5t26 53.5q0 28 -22.5 47t-80.5 36q-80 25 -112 57t-32 80q0 21 6.5 40.5t23.5 41t46 47.5q30 26 42 47t12 45q0 32 -22.5 50t-64.5 18
q-69 0 -105.5 -41t-36.5 -116v-447q0 -23 -12 -35t-34 -12q-21 0 -33 12t-12 35v435q0 114 61 176.5t172 62.5q55 0 94 -16t60 -45t21 -70q0 -37 -17 -67t-57 -66q-23 -20 -36 -34.5t-17.5 -26t-4.5 -25.5q0 -25 22.5 -43t81.5 -36q77 -24 110 -58.5t33 -87.5q0 -45 -23 -78
t-65 -51.5t-97 -18.5z" />
    <glyph glyph-name="agrave" unicode="&#xe0;" horiz-adv-x="533" 
d="M228 -9q-50 0 -90.5 20t-63 54t-22.5 76q0 54 27 85t91 44.5t172 13.5h47v-58h-45q-77 0 -121.5 -7t-62.5 -24.5t-18 -48.5q0 -39 27.5 -64t75.5 -25q38 0 67 18.5t46 50t17 72.5v115q0 59 -24 85.5t-81 26.5q-33 0 -68 -9t-73 -28q-15 -7 -26 -4.5t-17.5 12t-7 21
t5 22.5t19.5 16q44 22 87.5 31.5t81.5 9.5q65 0 107 -20.5t63 -63t21 -108.5v-264q0 -23 -11 -35t-32 -12q-20 0 -31.5 12t-11.5 35v71h9q-8 -37 -30 -64t-54.5 -41.5t-73.5 -14.5zM238 557l-100 152q-9 14 -7 26t11 20.5t21 11.5t24 -1.5t20 -20.5l81 -159q6 -13 2.5 -23
t-13.5 -15.5t-21 -3.5t-18 13z" />
    <glyph glyph-name="aacute" unicode="&#xe1;" horiz-adv-x="533" 
d="M228 -9q-50 0 -90.5 20t-63 54t-22.5 76q0 54 27 85t91 44.5t172 13.5h47v-58h-45q-77 0 -121.5 -7t-62.5 -24.5t-18 -48.5q0 -39 27.5 -64t75.5 -25q38 0 67 18.5t46 50t17 72.5v115q0 59 -24 85.5t-81 26.5q-33 0 -68 -9t-73 -28q-15 -7 -26 -4.5t-17.5 12t-7 21
t5 22.5t19.5 16q44 22 87.5 31.5t81.5 9.5q65 0 107 -20.5t63 -63t21 -108.5v-264q0 -23 -11 -35t-32 -12q-20 0 -31.5 12t-11.5 35v71h9q-8 -37 -30 -64t-54.5 -41.5t-73.5 -14.5zM309 557q-8 -11 -18.5 -13t-20.5 3.5t-14 15.5t2 23l82 159q7 16 19 20.5t24.5 1.5
t21.5 -11.5t10.5 -21t-6.5 -25.5z" />
    <glyph glyph-name="acircumflex" unicode="&#xe2;" horiz-adv-x="533" 
d="M228 -9q-50 0 -90.5 20t-63 54t-22.5 76q0 54 27 85t91 44.5t172 13.5h47v-58h-45q-77 0 -121.5 -7t-62.5 -24.5t-18 -48.5q0 -39 27.5 -64t75.5 -25q38 0 67 18.5t46 50t17 72.5v115q0 59 -24 85.5t-81 26.5q-33 0 -68 -9t-73 -28q-15 -7 -26 -4.5t-17.5 12t-7 21
t5 22.5t19.5 16q44 22 87.5 31.5t81.5 9.5q65 0 107 -20.5t63 -63t21 -108.5v-264q0 -23 -11 -35t-32 -12q-20 0 -31.5 12t-11.5 35v71h9q-8 -37 -30 -64t-54.5 -41.5t-73.5 -14.5zM407 585q7 -13 3.5 -23t-13 -15t-20 -3t-17.5 13l-87 139l-87 -139q-7 -11 -17.5 -13t-20 3
t-13 15t3.5 23l80 148q10 18 23.5 26t30.5 8t31 -8t23 -26z" />
    <glyph glyph-name="atilde" unicode="&#xe3;" horiz-adv-x="533" 
d="M228 -9q-50 0 -90.5 20t-63 54t-22.5 76q0 54 27 85t91 44.5t172 13.5h47v-58h-45q-77 0 -121.5 -7t-62.5 -24.5t-18 -48.5q0 -39 27.5 -64t75.5 -25q38 0 67 18.5t46 50t17 72.5v115q0 59 -24 85.5t-81 26.5q-33 0 -68 -9t-73 -28q-15 -7 -26 -4.5t-17.5 12t-7 21
t5 22.5t19.5 16q44 22 87.5 31.5t81.5 9.5q65 0 107 -20.5t63 -63t21 -108.5v-264q0 -23 -11 -35t-32 -12q-20 0 -31.5 12t-11.5 35v71h9q-8 -37 -30 -64t-54.5 -41.5t-73.5 -14.5zM115 586q-12 0 -18.5 7.5t-3.5 22.5q4 23 12 43t21.5 35.5t31.5 25t42 9.5t43 -11.5t35 -26
t32 -25.5t35 -11q22 0 37.5 16.5t20.5 44.5q2 9 9 14t19 5q12 -1 18.5 -8.5t3.5 -22.5q-5 -30 -18.5 -55.5t-35 -41t-53.5 -15.5q-24 0 -43 11t-35.5 25.5t-32.5 25.5t-34 11q-22 0 -37.5 -16t-20.5 -44q-2 -10 -9 -15t-19 -4z" />
    <glyph glyph-name="adieresis" unicode="&#xe4;" horiz-adv-x="533" 
d="M228 -9q-50 0 -90.5 20t-63 54t-22.5 76q0 54 27 85t91 44.5t172 13.5h47v-58h-45q-77 0 -121.5 -7t-62.5 -24.5t-18 -48.5q0 -39 27.5 -64t75.5 -25q38 0 67 18.5t46 50t17 72.5v115q0 59 -24 85.5t-81 26.5q-33 0 -68 -9t-73 -28q-15 -7 -26 -4.5t-17.5 12t-7 21
t5 22.5t19.5 16q44 22 87.5 31.5t81.5 9.5q65 0 107 -20.5t63 -63t21 -108.5v-264q0 -23 -11 -35t-32 -12q-20 0 -31.5 12t-11.5 35v71h9q-8 -37 -30 -64t-54.5 -41.5t-73.5 -14.5zM362 603q-24 0 -37 13t-13 37t13 36.5t37 12.5t37 -12.5t13 -36.5t-12.5 -37t-37.5 -13z
M185 603q-24 0 -37.5 13t-13.5 37t13.5 36.5t37.5 12.5t37 -12.5t13 -36.5t-13 -37t-37 -13z" />
    <glyph glyph-name="aring" unicode="&#xe5;" horiz-adv-x="533" 
d="M228 -9q-50 0 -90.5 20t-63 54t-22.5 76q0 54 27 85t91 44.5t172 13.5h47v-58h-45q-77 0 -121.5 -7t-62.5 -24.5t-18 -48.5q0 -39 27.5 -64t75.5 -25q38 0 67 18.5t46 50t17 72.5v115q0 59 -24 85.5t-81 26.5q-33 0 -68 -9t-73 -28q-15 -7 -26 -4.5t-17.5 12t-7 21
t5 22.5t19.5 16q44 22 87.5 31.5t81.5 9.5q65 0 107 -20.5t63 -63t21 -108.5v-264q0 -23 -11 -35t-32 -12q-20 0 -31.5 12t-11.5 35v71h9q-8 -37 -30 -64t-54.5 -41.5t-73.5 -14.5zM273 546q-33 0 -60.5 16t-43.5 43t-16 59q0 33 16 59.5t43.5 42t60.5 15.5q34 0 61 -15.5
t43 -42t16 -59.5q0 -32 -16 -59t-43 -43t-61 -16zM273 593q31 0 50.5 20.5t19.5 50.5t-19.5 50t-50.5 20q-30 0 -50 -20t-20 -50t20 -50.5t50 -20.5z" />
    <glyph glyph-name="ae" unicode="&#xe6;" horiz-adv-x="862" 
d="M235 -9q-54 0 -95.5 20t-64.5 54t-23 76q0 54 27.5 85t91.5 44t173 13h45v-57h-45q-77 0 -121.5 -7t-62.5 -24.5t-18 -48.5q0 -39 27.5 -64t76.5 -25q40 0 69 19t45.5 52t16.5 75v108q0 60 -25 87t-80 27q-34 0 -69 -9t-73 -28q-15 -7 -26.5 -4.5t-17.5 12t-6.5 21
t5 22.5t19.5 16q44 22 87.5 31.5t81.5 9.5q72 0 115 -29t59 -88h-25q25 57 76.5 87t113.5 31q48 0 87 -16.5t66.5 -47.5t42 -75.5t14.5 -100.5v-3q0 -14 -9.5 -21t-27.5 -7h-328v57h303l-15 -13q0 51 -15 86.5t-44.5 54.5t-73.5 19q-45 0 -78 -21t-50.5 -60.5t-17.5 -94.5
v-7q0 -90 40.5 -137t121.5 -47q29 0 63.5 8.5t65.5 28.5q15 9 27.5 8.5t20.5 -8t10 -18t-3 -22.5t-19 -21q-34 -23 -78.5 -35.5t-86.5 -12.5q-85 0 -143.5 38t-81.5 113h21q-14 -70 -64 -110.5t-125 -40.5z" />
    <glyph glyph-name="ccedilla" unicode="&#xe7;" horiz-adv-x="465" 
d="M284 -9q-74 0 -128 31.5t-83 89t-29 135.5q0 58 16.5 104t47.5 78.5t75.5 49.5t100.5 17q35 0 74 -11t72 -36q11 -8 14 -18.5t0.5 -21.5t-10 -18.5t-19 -8.5t-24.5 7q-24 18 -50.5 26t-50.5 8q-37 0 -65.5 -12t-48 -34.5t-29.5 -55t-10 -75.5q0 -85 40 -133.5t113 -48.5
q24 0 50 7.5t51 25.5q13 8 24 6.5t18.5 -9t9.5 -18t-1.5 -21.5t-14.5 -18q-32 -24 -70 -35t-73 -11zM282 -193q-19 0 -38.5 2.5t-35.5 9.5q-12 4 -16.5 14t-1.5 19.5t12 14t21 -0.5q12 -4 25 -6.5t29 -2.5q27 0 42.5 9t15.5 27q0 12 -9 19t-29 7q-8 0 -15.5 -0.5t-16.5 -3.5
q-8 -2 -13.5 -2t-10.5 4q-4 3 -5 9t0 16l12 78h55l-13 -76l-26 8q12 3 24 5t22 2q37 0 61 -18t24 -51q0 -37 -31.5 -60t-81.5 -23z" />
    <glyph glyph-name="egrave" unicode="&#xe8;" horiz-adv-x="534" 
d="M298 -9q-79 0 -135.5 30.5t-87.5 87t-31 133.5q0 76 30.5 133t84 89t122.5 32q49 0 88.5 -16.5t67.5 -47.5t42.5 -75.5t14.5 -100.5q0 -16 -9.5 -24.5t-27.5 -8.5h-342v58h319l-17 -14q0 52 -15.5 88.5t-45 55.5t-73.5 19q-48 0 -82 -22.5t-52 -63t-18 -93.5v-6
q0 -90 43 -136t124 -46q32 0 65.5 8t64.5 29q15 9 27.5 8.5t20.5 -8t10 -18t-3 -22.5t-19 -21q-33 -23 -78.5 -35.5t-87.5 -12.5zM246 557l-100 152q-9 14 -7 26t11 20.5t21 11.5t24 -1.5t20 -20.5l81 -159q6 -13 2.5 -23t-13.5 -15.5t-21 -3.5t-18 13z" />
    <glyph glyph-name="eacute" unicode="&#xe9;" horiz-adv-x="534" 
d="M298 -9q-79 0 -135.5 30.5t-87.5 87t-31 133.5q0 76 30.5 133t84 89t122.5 32q49 0 88.5 -16.5t67.5 -47.5t42.5 -75.5t14.5 -100.5q0 -16 -9.5 -24.5t-27.5 -8.5h-342v58h319l-17 -14q0 52 -15.5 88.5t-45 55.5t-73.5 19q-48 0 -82 -22.5t-52 -63t-18 -93.5v-6
q0 -90 43 -136t124 -46q32 0 65.5 8t64.5 29q15 9 27.5 8.5t20.5 -8t10 -18t-3 -22.5t-19 -21q-33 -23 -78.5 -35.5t-87.5 -12.5zM317 557q-8 -11 -18.5 -13t-20.5 3.5t-14 15.5t2 23l82 159q7 16 19 20.5t24.5 1.5t21.5 -11.5t10.5 -21t-6.5 -25.5z" />
    <glyph glyph-name="ecircumflex" unicode="&#xea;" horiz-adv-x="534" 
d="M298 -9q-79 0 -135.5 30.5t-87.5 87t-31 133.5q0 76 30.5 133t84 89t122.5 32q49 0 88.5 -16.5t67.5 -47.5t42.5 -75.5t14.5 -100.5q0 -16 -9.5 -24.5t-27.5 -8.5h-342v58h319l-17 -14q0 52 -15.5 88.5t-45 55.5t-73.5 19q-48 0 -82 -22.5t-52 -63t-18 -93.5v-6
q0 -90 43 -136t124 -46q32 0 65.5 8t64.5 29q15 9 27.5 8.5t20.5 -8t10 -18t-3 -22.5t-19 -21q-33 -23 -78.5 -35.5t-87.5 -12.5zM415 585q7 -13 3.5 -23t-13 -15t-20 -3t-17.5 13l-87 139l-87 -139q-7 -11 -17.5 -13t-20 3t-13 15t3.5 23l80 148q10 18 23.5 26t30.5 8
t31 -8t23 -26z" />
    <glyph glyph-name="edieresis" unicode="&#xeb;" horiz-adv-x="534" 
d="M298 -9q-79 0 -135.5 30.5t-87.5 87t-31 133.5q0 76 30.5 133t84 89t122.5 32q49 0 88.5 -16.5t67.5 -47.5t42.5 -75.5t14.5 -100.5q0 -16 -9.5 -24.5t-27.5 -8.5h-342v58h319l-17 -14q0 52 -15.5 88.5t-45 55.5t-73.5 19q-48 0 -82 -22.5t-52 -63t-18 -93.5v-6
q0 -90 43 -136t124 -46q32 0 65.5 8t64.5 29q15 9 27.5 8.5t20.5 -8t10 -18t-3 -22.5t-19 -21q-33 -23 -78.5 -35.5t-87.5 -12.5zM370 603q-24 0 -37 13t-13 37t13 36.5t37 12.5t37 -12.5t13 -36.5t-12.5 -37t-37.5 -13zM193 603q-24 0 -37.5 13t-13.5 37t13.5 36.5
t37.5 12.5t37 -12.5t13 -36.5t-13 -37t-37 -13z" />
    <glyph glyph-name="igrave" unicode="&#xec;" horiz-adv-x="237" 
d="M118 -5q-21 0 -33 13t-12 36v399q0 24 12 36.5t33 12.5q22 0 34 -12.5t12 -36.5v-399q0 -23 -11.5 -36t-34.5 -13zM83 557l-100 152q-9 14 -7 26t11 20.5t21 11.5t24 -1.5t20 -20.5l81 -159q6 -13 2.5 -23t-13.5 -15.5t-21 -3.5t-18 13z" />
    <glyph glyph-name="iacute" unicode="&#xed;" horiz-adv-x="237" 
d="M118 -5q-21 0 -33 13t-12 36v399q0 24 12 36.5t33 12.5q22 0 34 -12.5t12 -36.5v-399q0 -23 -11.5 -36t-34.5 -13zM154 557q-8 -11 -18.5 -13t-20.5 3.5t-14 15.5t2 23l82 159q7 16 19 20.5t24.5 1.5t21.5 -11.5t10.5 -21t-6.5 -25.5z" />
    <glyph glyph-name="icircumflex" unicode="&#xee;" horiz-adv-x="237" 
d="M118 -5q-21 0 -33 13t-12 36v399q0 24 12 36.5t33 12.5q22 0 34 -12.5t12 -36.5v-399q0 -23 -11.5 -36t-34.5 -13zM252 585q7 -13 3.5 -23t-13 -15t-20 -3t-17.5 13l-87 139l-87 -139q-7 -11 -17.5 -13t-20 3t-13 15t3.5 23l80 148q10 18 23.5 26t30.5 8t31 -8t23 -26z
" />
    <glyph glyph-name="idieresis" unicode="&#xef;" horiz-adv-x="237" 
d="M118 -5q-21 0 -33 13t-12 36v399q0 24 12 36.5t33 12.5q22 0 34 -12.5t12 -36.5v-399q0 -23 -11.5 -36t-34.5 -13zM207 603q-24 0 -37 13t-13 37t13 36.5t37 12.5t37 -12.5t13 -36.5t-12.5 -37t-37.5 -13zM30 603q-24 0 -37.5 13t-13.5 37t13.5 36.5t37.5 12.5t37 -12.5
t13 -36.5t-13 -37t-37 -13z" />
    <glyph glyph-name="eth" unicode="&#xf0;" horiz-adv-x="565" 
d="M277 -9q-69 0 -122 29t-82 81t-29 121t29 120.5t80.5 80.5t119.5 29q48 0 85.5 -16t63 -48.5t35.5 -84.5h-23q1 96 -38.5 168t-105.5 115h21l-149 -66q-18 -8 -30.5 -3t-17.5 15.5t0 23.5t24 21l107 47l3 -13q-19 10 -40 18.5t-44 15.5q-18 5 -25 17t-3.5 24t15.5 18.5
t31 2.5q41 -11 76 -26t66 -34l-25 1l124 54q17 8 29.5 3.5t18 -15.5t1 -23t-22.5 -20l-89 -39l3 12q51 -39 86 -90t53 -112t18 -133q0 -71 -15.5 -125.5t-46.5 -92t-76 -57t-105 -19.5zM279 63q45 0 77.5 19.5t50 55.5t17.5 84q0 73 -38.5 115.5t-105.5 42.5q-45 0 -77 -19
t-49.5 -54.5t-17.5 -84.5q0 -75 38 -117t105 -42z" />
    <glyph glyph-name="ntilde" unicode="&#xf1;" horiz-adv-x="572" 
d="M118 -7q-21 0 -33 12t-12 35v408q0 23 12 34.5t33 11.5t32.5 -11.5t11.5 -34.5v-82l-11 15q21 57 68.5 86t108.5 29q59 0 97 -21t57 -64t19 -109v-262q0 -23 -11.5 -35t-33.5 -12t-34 12t-12 35v257q0 65 -25 95t-80 30q-64 0 -102.5 -39.5t-38.5 -106.5v-236
q0 -47 -46 -47zM129 586q-12 0 -18.5 7.5t-3.5 22.5q4 23 12 43t21.5 35.5t31.5 25t42 9.5t43 -11.5t35 -26t32 -25.5t35 -11q22 0 37.5 16.5t20.5 44.5q2 9 9 14t19 5q12 -1 18.5 -8.5t3.5 -22.5q-5 -30 -18.5 -55.5t-35 -41t-53.5 -15.5q-24 0 -43 11t-35.5 25.5
t-32.5 25.5t-34 11q-22 0 -37.5 -16t-20.5 -44q-2 -10 -9 -15t-19 -4z" />
    <glyph glyph-name="ograve" unicode="&#xf2;" horiz-adv-x="560" 
d="M280 -9q-72 0 -125 31t-82 88t-29 134q0 58 16.5 104.5t47.5 79.5t74.5 50.5t97.5 17.5q72 0 125 -31t82 -87.5t29 -133.5q0 -58 -16.5 -105t-47.5 -80t-74.5 -50.5t-97.5 -17.5zM280 63q44 0 76.5 21t50 61t17.5 99q0 88 -39 134t-105 46q-43 0 -75.5 -20.5t-50.5 -60.5
t-18 -99q0 -88 39.5 -134.5t104.5 -46.5zM245 557l-100 152q-9 14 -7 26t11 20.5t21 11.5t24 -1.5t20 -20.5l81 -159q6 -13 2.5 -23t-13.5 -15.5t-21 -3.5t-18 13z" />
    <glyph glyph-name="oacute" unicode="&#xf3;" horiz-adv-x="560" 
d="M280 -9q-72 0 -125 31t-82 88t-29 134q0 58 16.5 104.5t47.5 79.5t74.5 50.5t97.5 17.5q72 0 125 -31t82 -87.5t29 -133.5q0 -58 -16.5 -105t-47.5 -80t-74.5 -50.5t-97.5 -17.5zM280 63q44 0 76.5 21t50 61t17.5 99q0 88 -39 134t-105 46q-43 0 -75.5 -20.5t-50.5 -60.5
t-18 -99q0 -88 39.5 -134.5t104.5 -46.5zM316 557q-8 -11 -18.5 -13t-20.5 3.5t-14 15.5t2 23l82 159q7 16 19 20.5t24.5 1.5t21.5 -11.5t10.5 -21t-6.5 -25.5z" />
    <glyph glyph-name="ocircumflex" unicode="&#xf4;" horiz-adv-x="560" 
d="M280 -9q-72 0 -125 31t-82 88t-29 134q0 58 16.5 104.5t47.5 79.5t74.5 50.5t97.5 17.5q72 0 125 -31t82 -87.5t29 -133.5q0 -58 -16.5 -105t-47.5 -80t-74.5 -50.5t-97.5 -17.5zM280 63q44 0 76.5 21t50 61t17.5 99q0 88 -39 134t-105 46q-43 0 -75.5 -20.5t-50.5 -60.5
t-18 -99q0 -88 39.5 -134.5t104.5 -46.5zM414 585q7 -13 3.5 -23t-13 -15t-20 -3t-17.5 13l-87 139l-87 -139q-7 -11 -17.5 -13t-20 3t-13 15t3.5 23l80 148q10 18 23.5 26t30.5 8t31 -8t23 -26z" />
    <glyph glyph-name="otilde" unicode="&#xf5;" horiz-adv-x="560" 
d="M280 -9q-72 0 -125 31t-82 88t-29 134q0 58 16.5 104.5t47.5 79.5t74.5 50.5t97.5 17.5q72 0 125 -31t82 -87.5t29 -133.5q0 -58 -16.5 -105t-47.5 -80t-74.5 -50.5t-97.5 -17.5zM280 63q44 0 76.5 21t50 61t17.5 99q0 88 -39 134t-105 46q-43 0 -75.5 -20.5t-50.5 -60.5
t-18 -99q0 -88 39.5 -134.5t104.5 -46.5zM122 586q-12 0 -18.5 7.5t-3.5 22.5q4 23 12 43t21.5 35.5t31.5 25t42 9.5t43 -11.5t35 -26t32 -25.5t35 -11q22 0 37.5 16.5t20.5 44.5q2 9 9 14t19 5q12 -1 18.5 -8.5t3.5 -22.5q-5 -30 -18.5 -55.5t-35 -41t-53.5 -15.5
q-24 0 -43 11t-35.5 25.5t-32.5 25.5t-34 11q-22 0 -37.5 -16t-20.5 -44q-2 -10 -9 -15t-19 -4z" />
    <glyph glyph-name="odieresis" unicode="&#xf6;" horiz-adv-x="560" 
d="M280 -9q-72 0 -125 31t-82 88t-29 134q0 58 16.5 104.5t47.5 79.5t74.5 50.5t97.5 17.5q72 0 125 -31t82 -87.5t29 -133.5q0 -58 -16.5 -105t-47.5 -80t-74.5 -50.5t-97.5 -17.5zM280 63q44 0 76.5 21t50 61t17.5 99q0 88 -39 134t-105 46q-43 0 -75.5 -20.5t-50.5 -60.5
t-18 -99q0 -88 39.5 -134.5t104.5 -46.5zM369 603q-24 0 -37 13t-13 37t13 36.5t37 12.5t37 -12.5t13 -36.5t-12.5 -37t-37.5 -13zM192 603q-24 0 -37.5 13t-13.5 37t13.5 36.5t37.5 12.5t37 -12.5t13 -36.5t-13 -37t-37 -13z" />
    <glyph glyph-name="divide" unicode="&#xf7;" horiz-adv-x="600" 
d="M84 253q-17 0 -26 9t-9 25t9 25t26 9h432q17 0 26 -9t9 -25t-9 -25t-26 -9h-432zM294 42q-22 0 -34.5 12t-12.5 34q0 23 12.5 35t34.5 12t34.5 -12t12.5 -35q0 -22 -12 -34t-35 -12zM294 438q-22 0 -34.5 12.5t-12.5 34.5q0 23 12.5 35t34.5 12t34.5 -12t12.5 -35
q0 -22 -12 -34.5t-35 -12.5z" />
    <glyph glyph-name="oslash" unicode="&#xf8;" horiz-adv-x="560" 
d="M280 -9q-72 0 -125 31t-82 88t-29 134q0 58 16.5 104.5t47.5 79.5t74.5 50.5t97.5 17.5q72 0 125 -31t82 -87.5t29 -133.5q0 -58 -16.5 -105t-47.5 -80t-74.5 -50.5t-97.5 -17.5zM280 63q44 0 76.5 21t50 61t17.5 99q0 88 -39 134t-105 46q-43 0 -75.5 -20.5t-50.5 -60.5
t-18 -99q0 -88 39.5 -134.5t104.5 -46.5zM156 -31q-8 -13 -20 -15t-22 4t-14 18t5 26l300 516q8 14 20 15.5t22 -4.5t14 -18t-4 -26z" />
    <glyph glyph-name="ugrave" unicode="&#xf9;" horiz-adv-x="565" 
d="M247 -9q-59 0 -98.5 22t-58.5 65t-19 108v262q0 23 11.5 34.5t33.5 11.5t34 -11.5t12 -34.5v-262q0 -62 25 -91.5t79 -29.5q60 0 97.5 40t37.5 106v237q0 23 11.5 34.5t33.5 11.5t34 -11.5t12 -34.5v-408q0 -47 -44 -47q-22 0 -33.5 12t-11.5 35v87l13 -17
q-20 -58 -64.5 -88.5t-104.5 -30.5zM247 558l-100 152q-9 14 -7 26t11 20.5t21 11.5t24 -1.5t20 -20.5l81 -159q6 -13 2.5 -23t-13.5 -15.5t-21 -3.5t-18 13z" />
    <glyph glyph-name="uacute" unicode="&#xfa;" horiz-adv-x="565" 
d="M247 -9q-59 0 -98.5 22t-58.5 65t-19 108v262q0 23 11.5 34.5t33.5 11.5t34 -11.5t12 -34.5v-262q0 -62 25 -91.5t79 -29.5q60 0 97.5 40t37.5 106v237q0 23 11.5 34.5t33.5 11.5t34 -11.5t12 -34.5v-408q0 -47 -44 -47q-22 0 -33.5 12t-11.5 35v87l13 -17
q-20 -58 -64.5 -88.5t-104.5 -30.5zM318 558q-8 -11 -18.5 -13t-20.5 3.5t-14 15.5t2 23l82 159q7 16 19 20.5t24.5 1.5t21.5 -11.5t10.5 -21t-6.5 -25.5z" />
    <glyph glyph-name="ucircumflex" unicode="&#xfb;" horiz-adv-x="565" 
d="M247 -9q-59 0 -98.5 22t-58.5 65t-19 108v262q0 23 11.5 34.5t33.5 11.5t34 -11.5t12 -34.5v-262q0 -62 25 -91.5t79 -29.5q60 0 97.5 40t37.5 106v237q0 23 11.5 34.5t33.5 11.5t34 -11.5t12 -34.5v-408q0 -47 -44 -47q-22 0 -33.5 12t-11.5 35v87l13 -17
q-20 -58 -64.5 -88.5t-104.5 -30.5zM416 586q7 -13 3.5 -23t-13 -15t-20 -3t-17.5 13l-87 139l-87 -139q-7 -11 -17.5 -13t-20 3t-13 15t3.5 23l80 148q10 18 23.5 26t30.5 8t31 -8t23 -26z" />
    <glyph glyph-name="udieresis" unicode="&#xfc;" horiz-adv-x="565" 
d="M247 -9q-59 0 -98.5 22t-58.5 65t-19 108v262q0 23 11.5 34.5t33.5 11.5t34 -11.5t12 -34.5v-262q0 -62 25 -91.5t79 -29.5q60 0 97.5 40t37.5 106v237q0 23 11.5 34.5t33.5 11.5t34 -11.5t12 -34.5v-408q0 -47 -44 -47q-22 0 -33.5 12t-11.5 35v87l13 -17
q-20 -58 -64.5 -88.5t-104.5 -30.5zM371 604q-24 0 -37 13t-13 37t13 36.5t37 12.5t37 -12.5t13 -36.5t-12.5 -37t-37.5 -13zM194 604q-24 0 -37.5 13t-13.5 37t13.5 36.5t37.5 12.5t37 -12.5t13 -36.5t-13 -37t-37 -13z" />
    <glyph glyph-name="yacute" unicode="&#xfd;" horiz-adv-x="517" 
d="M185 -187q-16 0 -26.5 8.5t-12 23t5.5 30.5l68 154v-38l-189 440q-7 17 -5 31t13.5 23t31.5 9q17 0 27 -8t19 -28l157 -387h-28l160 387q8 20 19 28t30 8q17 0 26.5 -9t11.5 -23t-6 -30l-252 -583q-10 -21 -20.5 -28.5t-29.5 -7.5zM295 557q-8 -11 -18.5 -13t-20.5 3.5
t-14 15.5t2 23l82 159q7 16 19 20.5t24.5 1.5t21.5 -11.5t10.5 -21t-6.5 -25.5z" />
    <glyph glyph-name="thorn" unicode="&#xfe;" horiz-adv-x="587" 
d="M118 -187q-21 0 -33 12t-12 34v807q0 23 12 34.5t33 11.5q22 0 34 -11.5t12 -34.5v-291h-12q16 55 63 88t113 33q65 0 113 -30.5t75 -87t27 -134.5q0 -77 -26.5 -134.5t-75 -88t-113.5 -30.5t-112 33t-63 87h11v-252q0 -22 -12 -34t-34 -12zM307 63q43 0 75.5 21t50.5 61
t18 99q0 88 -39 134t-105 46q-44 0 -76.5 -20.5t-50 -60.5t-17.5 -99q0 -88 39 -134.5t105 -46.5z" />
    <glyph glyph-name="ydieresis" unicode="&#xff;" horiz-adv-x="517" 
d="M185 -187q-16 0 -26.5 8.5t-12 23t5.5 30.5l68 154v-38l-189 440q-7 17 -5 31t13.5 23t31.5 9q17 0 27 -8t19 -28l157 -387h-28l160 387q8 20 19 28t30 8q17 0 26.5 -9t11.5 -23t-6 -30l-252 -583q-10 -21 -20.5 -28.5t-29.5 -7.5zM348 603q-24 0 -37 13t-13 37t13 36.5
t37 12.5t37 -12.5t13 -36.5t-12.5 -37t-37.5 -13zM171 603q-24 0 -37.5 13t-13.5 37t13.5 36.5t37.5 12.5t37 -12.5t13 -36.5t-13 -37t-37 -13z" />
    <glyph glyph-name="Amacron" unicode="&#x100;" horiz-adv-x="733" 
d="M75 -7q-18 0 -28.5 8t-12.5 22t6 31l273 618q9 21 23 30.5t31 9.5t30.5 -9.5t23.5 -30.5l273 -618q8 -17 6.5 -31.5t-11.5 -22t-28 -7.5q-20 0 -32 10.5t-21 30.5l-71 166l43 -24h-428l43 24l-71 -166q-9 -22 -20 -31.5t-29 -9.5zM365 600l-156 -369l-24 21h362l-23 -21
l-157 369h-2zM231 813q-32 0 -32 29q0 14 8 22t24 8h273q32 0 32 -30q0 -14 -8.5 -21.5t-23.5 -7.5h-273z" />
    <glyph glyph-name="amacron" unicode="&#x101;" horiz-adv-x="533" 
d="M228 -9q-50 0 -90.5 20t-63 54t-22.5 76q0 54 27 85t91 44.5t172 13.5h47v-58h-45q-77 0 -121.5 -7t-62.5 -24.5t-18 -48.5q0 -39 27.5 -64t75.5 -25q38 0 67 18.5t46 50t17 72.5v115q0 59 -24 85.5t-81 26.5q-33 0 -68 -9t-73 -28q-15 -7 -26 -4.5t-17.5 12t-7 21
t5 22.5t19.5 16q44 22 87.5 31.5t81.5 9.5q65 0 107 -20.5t63 -63t21 -108.5v-264q0 -23 -11 -35t-32 -12q-20 0 -31.5 12t-11.5 35v71h9q-8 -37 -30 -64t-54.5 -41.5t-73.5 -14.5zM152 623q-32 0 -32 30q0 14 8 21.5t24 7.5h243q32 0 32 -29q0 -14 -8.5 -22t-23.5 -8h-243z
" />
    <glyph glyph-name="Abreve" unicode="&#x102;" horiz-adv-x="733" 
d="M75 -7q-18 0 -28.5 8t-12.5 22t6 31l273 618q9 21 23 30.5t31 9.5t30.5 -9.5t23.5 -30.5l273 -618q8 -17 6.5 -31.5t-11.5 -22t-28 -7.5q-20 0 -32 10.5t-21 30.5l-71 166l43 -24h-428l43 24l-71 -166q-9 -22 -20 -31.5t-29 -9.5zM365 600l-156 -369l-24 21h362l-23 -21
l-157 369h-2zM367 760q-60 0 -106.5 35t-61.5 106q-4 16 4 26t19 10q10 1 16.5 -2.5t10.5 -9t6 -12.5q10 -52 42.5 -73t69.5 -21q38 0 70 21t42 73q2 7 6 12.5t11 9t16 2.5q11 0 19 -10t4 -26q-15 -71 -61.5 -106t-106.5 -35z" />
    <glyph glyph-name="abreve" unicode="&#x103;" horiz-adv-x="533" 
d="M228 -9q-50 0 -90.5 20t-63 54t-22.5 76q0 54 27 85t91 44.5t172 13.5h47v-58h-45q-77 0 -121.5 -7t-62.5 -24.5t-18 -48.5q0 -39 27.5 -64t75.5 -25q38 0 67 18.5t46 50t17 72.5v115q0 59 -24 85.5t-81 26.5q-33 0 -68 -9t-73 -28q-15 -7 -26 -4.5t-17.5 12t-7 21
t5 22.5t19.5 16q44 22 87.5 31.5t81.5 9.5q65 0 107 -20.5t63 -63t21 -108.5v-264q0 -23 -11 -35t-32 -12q-20 0 -31.5 12t-11.5 35v71h9q-8 -37 -30 -64t-54.5 -41.5t-73.5 -14.5zM273 549q-44 0 -76 20.5t-52 57t-27 85.5q-2 16 6 25.5t20 10.5q13 0 21 -7t10 -22
q7 -55 33 -82.5t65 -27.5t65.5 27.5t32.5 82.5q2 15 10.5 22t20.5 7q13 -1 20.5 -10.5t5.5 -25.5q-6 -49 -26 -85.5t-52.5 -57t-76.5 -20.5z" />
    <glyph glyph-name="Aogonek" unicode="&#x104;" horiz-adv-x="733" 
d="M676 -193q-50 0 -79.5 27t-29.5 72q0 32 16.5 61t44.5 50l2 -14q-7 6 -12 13.5t-10 17.5l-71 166l43 -24h-428l43 24l-71 -166q-9 -22 -20 -31.5t-29 -9.5t-28.5 8t-13 22t5.5 31l274 618q9 21 23 30.5t31 9.5t30.5 -9.5t23.5 -30.5l273 -618q9 -19 6.5 -34t-15.5 -22
q-11 -6 -24 -18t-22 -28t-9 -36q0 -27 16.5 -41t41.5 -14q8 0 16.5 1.5t16.5 4.5q15 4 23 -1.5t10.5 -15.5t-2.5 -19.5t-17 -14.5q-15 -6 -30 -7.5t-29 -1.5zM365 600l-156 -369l-24 21h362l-23 -21l-157 369h-2z" />
    <glyph glyph-name="aogonek" unicode="&#x105;" horiz-adv-x="533" 
d="M423 -193q-49 0 -78.5 27t-29.5 72q0 36 20.5 68t56.5 54l-5 -20q-5 6 -7.5 14t-2.5 18v71h9q-8 -37 -30 -64t-54.5 -41.5t-73.5 -14.5q-50 0 -90.5 20t-63 54t-22.5 76q0 54 27 85t91 44.5t172 13.5h47v-58h-45q-77 0 -121.5 -7t-62.5 -24.5t-18 -48.5q0 -39 27.5 -64
t75.5 -25q38 0 67 18.5t46 50t17 72.5v115q0 59 -24 85.5t-81 26.5q-33 0 -68 -9t-73 -28q-15 -7 -26 -4.5t-17.5 12t-7 21t5 22.5t19.5 16q44 22 87.5 31.5t81.5 9.5q65 0 107 -20.5t63 -63t21 -108.5v-264q0 -20 -7.5 -30.5t-21.5 -16.5q-22 -11 -39.5 -30.5t-17.5 -46.5
t17 -41t41 -14q9 0 17 1.5t17 4.5q14 4 22.5 -1.5t10.5 -15.5t-3 -19.5t-16 -14.5q-16 -6 -31 -7.5t-29 -1.5z" />
    <glyph glyph-name="Cacute" unicode="&#x106;" horiz-adv-x="675" 
d="M395 -9q-105 0 -180 44t-115.5 125.5t-40.5 192.5q0 83 23 149.5t66 114t105.5 72.5t141.5 25q60 0 115.5 -17t95.5 -48q16 -11 21 -25t1.5 -26.5t-13 -21t-23.5 -9t-30 10.5q-35 27 -76.5 39.5t-88.5 12.5q-77 0 -130.5 -32.5t-81 -94t-27.5 -150.5q0 -88 27.5 -150.5
t81 -95t130.5 -32.5q47 0 89.5 13t78.5 40q16 11 29.5 10t22.5 -8.5t12.5 -20t-0.5 -25.5t-18 -23q-41 -35 -97.5 -52.5t-118.5 -17.5zM427 770q-9 -10 -20.5 -11t-20.5 5.5t-11.5 16.5t4.5 21l87 127q9 13 21 16t24 -1t19.5 -12.5t8 -20t-9.5 -23.5z" />
    <glyph glyph-name="cacute" unicode="&#x107;" horiz-adv-x="465" 
d="M284 -9q-74 0 -128 31.5t-83 89t-29 135.5q0 58 16.5 104t47.5 78.5t75.5 49.5t100.5 17q35 0 74 -11t72 -36q11 -8 14 -18.5t0.5 -21.5t-10 -18.5t-19 -8.5t-24.5 7q-24 18 -50.5 26t-50.5 8q-37 0 -65.5 -12t-48 -34.5t-29.5 -55t-10 -75.5q0 -85 40 -133.5t113 -48.5
q24 0 50 7.5t51 25.5q13 8 24 6.5t18.5 -9t9.5 -18t-1.5 -21.5t-14.5 -18q-32 -24 -70 -35t-73 -11zM315 557q-8 -11 -18.5 -13t-20.5 3.5t-14 15.5t2 23l82 159q7 16 19 20.5t24.5 1.5t21.5 -11.5t10.5 -21t-6.5 -25.5z" />
    <glyph glyph-name="Ccircumflex" unicode="&#x108;" horiz-adv-x="675" 
d="M395 -9q-105 0 -180 44t-115.5 125.5t-40.5 192.5q0 83 23 149.5t66 114t105.5 72.5t141.5 25q60 0 115.5 -17t95.5 -48q16 -11 21 -25t1.5 -26.5t-13 -21t-23.5 -9t-30 10.5q-35 27 -76.5 39.5t-88.5 12.5q-77 0 -130.5 -32.5t-81 -94t-27.5 -150.5q0 -88 27.5 -150.5
t81 -95t130.5 -32.5q47 0 89.5 13t78.5 40q16 11 29.5 10t22.5 -8.5t12.5 -20t-0.5 -25.5t-18 -23q-41 -35 -97.5 -52.5t-118.5 -17.5zM295 769q-10 -11 -21.5 -12t-20.5 5t-11.5 15.5t5.5 21.5l85 117q11 17 25 24t31 7t31 -7t26 -24l84 -117q8 -12 5.5 -21.5t-11 -15.5
t-20 -5t-21.5 12l-94 111z" />
    <glyph glyph-name="ccircumflex" unicode="&#x109;" horiz-adv-x="465" 
d="M284 -9q-74 0 -128 31.5t-83 89t-29 135.5q0 58 16.5 104t47.5 78.5t75.5 49.5t100.5 17q35 0 74 -11t72 -36q11 -8 14 -18.5t0.5 -21.5t-10 -18.5t-19 -8.5t-24.5 7q-24 18 -50.5 26t-50.5 8q-37 0 -65.5 -12t-48 -34.5t-29.5 -55t-10 -75.5q0 -85 40 -133.5t113 -48.5
q24 0 50 7.5t51 25.5q13 8 24 6.5t18.5 -9t9.5 -18t-1.5 -21.5t-14.5 -18q-32 -24 -70 -35t-73 -11zM413 585q7 -13 3.5 -23t-13 -15t-20 -3t-17.5 13l-87 139l-87 -139q-7 -11 -17.5 -13t-20 3t-13 15t3.5 23l80 148q10 18 23.5 26t30.5 8t31 -8t23 -26z" />
    <glyph glyph-name="Cdotaccent" unicode="&#x10a;" horiz-adv-x="675" 
d="M395 -9q-105 0 -180 44t-115.5 125.5t-40.5 192.5q0 83 23 149.5t66 114t105.5 72.5t141.5 25q60 0 115.5 -17t95.5 -48q16 -11 21 -25t1.5 -26.5t-13 -21t-23.5 -9t-30 10.5q-35 27 -76.5 39.5t-88.5 12.5q-77 0 -130.5 -32.5t-81 -94t-27.5 -150.5q0 -88 27.5 -150.5
t81 -95t130.5 -32.5q47 0 89.5 13t78.5 40q16 11 29.5 10t22.5 -8.5t12.5 -20t-0.5 -25.5t-18 -23q-41 -35 -97.5 -52.5t-118.5 -17.5zM388 800q-25 0 -38.5 13.5t-13.5 37.5q0 25 13.5 38t38.5 13q26 0 39 -13t13 -38q0 -24 -13 -37.5t-39 -13.5z" />
    <glyph glyph-name="cdotaccent" unicode="&#x10b;" horiz-adv-x="465" 
d="M284 -9q-74 0 -128 31.5t-83 89t-29 135.5q0 58 16.5 104t47.5 78.5t75.5 49.5t100.5 17q35 0 74 -11t72 -36q11 -8 14 -18.5t0.5 -21.5t-10 -18.5t-19 -8.5t-24.5 7q-24 18 -50.5 26t-50.5 8q-37 0 -65.5 -12t-48 -34.5t-29.5 -55t-10 -75.5q0 -85 40 -133.5t113 -48.5
q24 0 50 7.5t51 25.5q13 8 24 6.5t18.5 -9t9.5 -18t-1.5 -21.5t-14.5 -18q-32 -24 -70 -35t-73 -11zM279 602q-25 0 -39 14t-14 38q0 25 14 37.5t39 12.5q26 0 39.5 -12.5t13.5 -37.5t-13.5 -38.5t-39.5 -13.5z" />
    <glyph glyph-name="Ccaron" unicode="&#x10c;" horiz-adv-x="675" 
d="M395 -9q-105 0 -180 44t-115.5 125.5t-40.5 192.5q0 83 23 149.5t66 114t105.5 72.5t141.5 25q60 0 115.5 -17t95.5 -48q16 -11 21 -25t1.5 -26.5t-13 -21t-23.5 -9t-30 10.5q-35 27 -76.5 39.5t-88.5 12.5q-77 0 -130.5 -32.5t-81 -94t-27.5 -150.5q0 -88 27.5 -150.5
t81 -95t130.5 -32.5q47 0 89.5 13t78.5 40q16 11 29.5 10t22.5 -8.5t12.5 -20t-0.5 -25.5t-18 -23q-41 -35 -97.5 -52.5t-118.5 -17.5zM388 756q-17 0 -31 7t-25 23l-85 118q-8 11 -5.5 21t12 16t20.5 4.5t21 -12.5l93 -112l94 112q10 11 21 12.5t20 -4.5t11.5 -15.5
t-5.5 -21.5l-84 -118q-11 -16 -25.5 -23t-31.5 -7z" />
    <glyph glyph-name="ccaron" unicode="&#x10d;" horiz-adv-x="465" 
d="M284 -9q-74 0 -128 31.5t-83 89t-29 135.5q0 58 16.5 104t47.5 78.5t75.5 49.5t100.5 17q35 0 74 -11t72 -36q11 -8 14 -18.5t0.5 -21.5t-10 -18.5t-19 -8.5t-24.5 7q-24 18 -50.5 26t-50.5 8q-37 0 -65.5 -12t-48 -34.5t-29.5 -55t-10 -75.5q0 -85 40 -133.5t113 -48.5
q24 0 50 7.5t51 25.5q13 8 24 6.5t18.5 -9t9.5 -18t-1.5 -21.5t-14.5 -18q-32 -24 -70 -35t-73 -11zM279 538q-17 0 -30.5 9t-23.5 27l-80 147q-7 12 -3.5 22.5t13 15t20 3t17.5 -12.5l87 -139l87 139q7 11 17.5 12.5t20 -3t13 -15t-3.5 -22.5l-80 -147q-9 -18 -23 -27
t-31 -9z" />
    <glyph glyph-name="Dcaron" unicode="&#x10e;" horiz-adv-x="747" 
d="M135 0q-24 0 -37 13t-13 37v605q0 24 13 37t37 13h193q173 0 266.5 -90.5t93.5 -261.5q0 -85 -24 -151t-70 -110.5t-112.5 -68t-153.5 -23.5h-193zM178 79h144q68 0 118 17t83.5 51t50.5 85.5t17 120.5q0 137 -67.5 205t-201.5 68h-144v-547zM372 756q-17 0 -31 7t-25 23
l-85 118q-8 11 -5.5 21t12 16t20.5 4.5t21 -12.5l93 -112l94 112q10 11 21 12.5t20 -4.5t11.5 -15.5t-5.5 -21.5l-84 -118q-11 -16 -25.5 -23t-31.5 -7z" />
    <glyph glyph-name="dcaron" unicode="&#x10f;" horiz-adv-x="587" 
d="M259 -9q-64 0 -112.5 30.5t-75.5 88t-27 134.5q0 78 26.5 134.5t75 87t113.5 30.5t112 -32.5t63 -86.5h-11v289q0 23 11.5 34.5t33.5 11.5t34 -11.5t12 -34.5v-626q0 -23 -12 -35t-34 -12q-21 0 -33 12t-12 35v91l11 -18q-15 -56 -62.5 -89t-112.5 -33zM280 63
q44 0 76.5 21t50 61t17.5 99q0 88 -39 134t-105 46q-43 0 -75.5 -20.5t-50.5 -60.5t-18 -99q0 -88 39.5 -134.5t104.5 -46.5zM581 509q-10 0 -16.5 6.5t-6.5 17.5v144q0 35 35 35q17 0 25 -9.5t6 -26.5l-19 -144q-3 -23 -24 -23z" />
    <glyph glyph-name="Dcroat" unicode="&#x110;" horiz-adv-x="747" 
d="M135 0q-24 0 -37 13t-13 37v605q0 24 13 37t37 13h193q173 0 266.5 -90.5t93.5 -261.5q0 -85 -24 -151t-70 -110.5t-112.5 -68t-153.5 -23.5h-193zM178 79h144q68 0 118 17t83.5 51t50.5 85.5t17 120.5q0 137 -67.5 205t-201.5 68h-144v-547zM26 322q-18 0 -27.5 9.5
t-9.5 26.5t9.5 26t27.5 9h317q17 0 27 -8.5t10 -26.5q0 -17 -10 -26.5t-27 -9.5h-317z" />
    <glyph glyph-name="dcroat" unicode="&#x111;" horiz-adv-x="587" 
d="M260 -9q-65 0 -113.5 30.5t-75 88t-26.5 134.5q0 78 26.5 134.5t75 87t113.5 30.5q64 0 111 -32.5t63 -86.5h-11v174h-160q-17 0 -27 9t-10 25q0 15 10 24t27 9h197l-37 -38v92q0 18 12 29t33 11q22 0 34 -11t12 -29v-92l-37 38h96q18 0 27 -9t9 -24q0 -16 -9 -25t-27 -9
h-59v-511q0 -23 -11.5 -35t-33.5 -12t-33.5 12t-11.5 35v90l10 -18q-15 -55 -62 -88t-112 -33zM281 63q43 0 75.5 21t50.5 61t18 99q0 88 -39 134t-105 46q-44 0 -76.5 -20.5t-50 -60.5t-17.5 -99q0 -88 39 -134.5t105 -46.5z" />
    <glyph glyph-name="Emacron" unicode="&#x112;" horiz-adv-x="586" 
d="M135 0q-24 0 -37 13t-13 37v605q0 24 13 37t37 13h368q19 0 29.5 -9.5t10.5 -27.5q0 -19 -10.5 -29t-29.5 -10h-328v-233h307q19 0 29 -10t10 -28q0 -19 -10 -28.5t-29 -9.5h-307v-244h328q19 0 29.5 -9.5t10.5 -28.5t-10.5 -28.5t-29.5 -9.5h-368zM189 813q-32 0 -32 29
q0 14 8 22t24 8h273q32 0 32 -30q0 -14 -8.5 -21.5t-23.5 -7.5h-273z" />
    <glyph glyph-name="emacron" unicode="&#x113;" horiz-adv-x="534" 
d="M298 -9q-79 0 -135.5 30.5t-87.5 87t-31 133.5q0 76 30.5 133t84 89t122.5 32q49 0 88.5 -16.5t67.5 -47.5t42.5 -75.5t14.5 -100.5q0 -16 -9.5 -24.5t-27.5 -8.5h-342v58h319l-17 -14q0 52 -15.5 88.5t-45 55.5t-73.5 19q-48 0 -82 -22.5t-52 -63t-18 -93.5v-6
q0 -90 43 -136t124 -46q32 0 65.5 8t64.5 29q15 9 27.5 8.5t20.5 -8t10 -18t-3 -22.5t-19 -21q-33 -23 -78.5 -35.5t-87.5 -12.5zM160 623q-32 0 -32 30q0 14 8 21.5t24 7.5h243q32 0 32 -29q0 -14 -8.5 -22t-23.5 -8h-243z" />
    <glyph glyph-name="Ebreve" unicode="&#x114;" horiz-adv-x="586" 
d="M135 0q-24 0 -37 13t-13 37v605q0 24 13 37t37 13h368q19 0 29.5 -9.5t10.5 -27.5q0 -19 -10.5 -29t-29.5 -10h-328v-233h307q19 0 29 -10t10 -28q0 -19 -10 -28.5t-29 -9.5h-307v-244h328q19 0 29.5 -9.5t10.5 -28.5t-10.5 -28.5t-29.5 -9.5h-368zM325 760
q-60 0 -106.5 35t-61.5 106q-4 16 4 26t19 10q10 1 16.5 -2.5t10.5 -9t6 -12.5q10 -52 42.5 -73t69.5 -21q38 0 70 21t42 73q2 7 6 12.5t11 9t16 2.5q11 0 19 -10t4 -26q-15 -71 -61.5 -106t-106.5 -35z" />
    <glyph glyph-name="ebreve" unicode="&#x115;" horiz-adv-x="534" 
d="M298 -9q-79 0 -135.5 30.5t-87.5 87t-31 133.5q0 76 30.5 133t84 89t122.5 32q49 0 88.5 -16.5t67.5 -47.5t42.5 -75.5t14.5 -100.5q0 -16 -9.5 -24.5t-27.5 -8.5h-342v58h319l-17 -14q0 52 -15.5 88.5t-45 55.5t-73.5 19q-48 0 -82 -22.5t-52 -63t-18 -93.5v-6
q0 -90 43 -136t124 -46q32 0 65.5 8t64.5 29q15 9 27.5 8.5t20.5 -8t10 -18t-3 -22.5t-19 -21q-33 -23 -78.5 -35.5t-87.5 -12.5zM281 549q-44 0 -76 20.5t-52 57t-27 85.5q-2 16 6 25.5t20 10.5q13 0 21 -7t10 -22q7 -55 33 -82.5t65 -27.5t65.5 27.5t32.5 82.5
q2 15 10.5 22t20.5 7q13 -1 20.5 -10.5t5.5 -25.5q-6 -49 -26 -85.5t-52.5 -57t-76.5 -20.5z" />
    <glyph glyph-name="Edotaccent" unicode="&#x116;" horiz-adv-x="586" 
d="M135 0q-24 0 -37 13t-13 37v605q0 24 13 37t37 13h368q19 0 29.5 -9.5t10.5 -27.5q0 -19 -10.5 -29t-29.5 -10h-328v-233h307q19 0 29 -10t10 -28q0 -19 -10 -28.5t-29 -9.5h-307v-244h328q19 0 29.5 -9.5t10.5 -28.5t-10.5 -28.5t-29.5 -9.5h-368zM325 800
q-25 0 -38.5 13.5t-13.5 37.5q0 25 13.5 38t38.5 13q26 0 39 -13t13 -38q0 -24 -13 -37.5t-39 -13.5z" />
    <glyph glyph-name="edotaccent" unicode="&#x117;" horiz-adv-x="534" 
d="M298 -9q-79 0 -135.5 30.5t-87.5 87t-31 133.5q0 76 30.5 133t84 89t122.5 32q49 0 88.5 -16.5t67.5 -47.5t42.5 -75.5t14.5 -100.5q0 -16 -9.5 -24.5t-27.5 -8.5h-342v58h319l-17 -14q0 52 -15.5 88.5t-45 55.5t-73.5 19q-48 0 -82 -22.5t-52 -63t-18 -93.5v-6
q0 -90 43 -136t124 -46q32 0 65.5 8t64.5 29q15 9 27.5 8.5t20.5 -8t10 -18t-3 -22.5t-19 -21q-33 -23 -78.5 -35.5t-87.5 -12.5zM281 602q-25 0 -39 14t-14 38q0 25 14 37.5t39 12.5q26 0 39.5 -12.5t13.5 -37.5t-13.5 -38.5t-39.5 -13.5z" />
    <glyph glyph-name="Eogonek" unicode="&#x118;" horiz-adv-x="586" 
d="M135 0q-24 0 -37 13t-13 37v605q0 24 13 37t37 13h368q19 0 29.5 -9.5t10.5 -27.5q0 -19 -10.5 -29t-29.5 -10h-328v-233h307q19 0 29 -10t10 -28q0 -19 -10 -28.5t-29 -9.5h-307v-244h328q19 0 29.5 -9.5t10.5 -28.5t-10.5 -28.5t-29.5 -9.5h-368zM476 -193
q-50 0 -79.5 27t-29.5 72q0 40 26.5 75.5t71.5 55.5l30 -37q-16 -7 -31 -19t-24.5 -28.5t-9.5 -36.5q0 -27 16.5 -41t41.5 -14q8 0 16.5 1.5t16.5 4.5q15 4 23 -1.5t10.5 -15.5t-2.5 -19.5t-17 -14.5q-15 -6 -30 -7.5t-29 -1.5z" />
    <glyph glyph-name="eogonek" unicode="&#x119;" horiz-adv-x="534" 
d="M298 -9q-79 0 -135.5 30.5t-87.5 87t-31 133.5q0 76 30.5 133t84 89t122.5 32q49 0 88.5 -16.5t67.5 -47.5t42.5 -75.5t14.5 -100.5q0 -16 -9.5 -24.5t-27.5 -8.5h-342v58h319l-17 -14q0 52 -15.5 88.5t-45 55.5t-73.5 19q-48 0 -82 -22.5t-52 -63t-18 -93.5v-6
q0 -90 43 -136t124 -46q32 0 65.5 8t64.5 29q15 9 27.5 8.5t20.5 -8t10 -18t-3 -22.5t-19 -21q-33 -23 -78.5 -35.5t-87.5 -12.5zM340 -193q-50 0 -79.5 27t-29.5 72q0 40 26.5 75.5t71.5 55.5l30 -37q-16 -7 -31 -19t-24.5 -28.5t-9.5 -36.5q0 -27 16.5 -41t41.5 -14
q8 0 16.5 1.5t16.5 4.5q15 4 23 -1.5t10.5 -15.5t-2.5 -19.5t-17 -14.5q-15 -6 -30 -7.5t-29 -1.5z" />
    <glyph glyph-name="Ecaron" unicode="&#x11a;" horiz-adv-x="586" 
d="M135 0q-24 0 -37 13t-13 37v605q0 24 13 37t37 13h368q19 0 29.5 -9.5t10.5 -27.5q0 -19 -10.5 -29t-29.5 -10h-328v-233h307q19 0 29 -10t10 -28q0 -19 -10 -28.5t-29 -9.5h-307v-244h328q19 0 29.5 -9.5t10.5 -28.5t-10.5 -28.5t-29.5 -9.5h-368zM325 756q-17 0 -31 7
t-25 23l-85 118q-8 11 -5.5 21t12 16t20.5 4.5t21 -12.5l93 -112l94 112q10 11 21 12.5t20 -4.5t11.5 -15.5t-5.5 -21.5l-84 -118q-11 -16 -25.5 -23t-31.5 -7z" />
    <glyph glyph-name="ecaron" unicode="&#x11b;" horiz-adv-x="534" 
d="M298 -9q-79 0 -135.5 30.5t-87.5 87t-31 133.5q0 76 30.5 133t84 89t122.5 32q49 0 88.5 -16.5t67.5 -47.5t42.5 -75.5t14.5 -100.5q0 -16 -9.5 -24.5t-27.5 -8.5h-342v58h319l-17 -14q0 52 -15.5 88.5t-45 55.5t-73.5 19q-48 0 -82 -22.5t-52 -63t-18 -93.5v-6
q0 -90 43 -136t124 -46q32 0 65.5 8t64.5 29q15 9 27.5 8.5t20.5 -8t10 -18t-3 -22.5t-19 -21q-33 -23 -78.5 -35.5t-87.5 -12.5zM281 538q-17 0 -30.5 9t-23.5 27l-80 147q-7 12 -3.5 22.5t13 15t20 3t17.5 -12.5l87 -139l87 139q7 11 17.5 12.5t20 -3t13 -15t-3.5 -22.5
l-80 -147q-9 -18 -23 -27t-31 -9z" />
    <glyph glyph-name="Gcircumflex" unicode="&#x11c;" horiz-adv-x="729" 
d="M410 -9q-113 0 -191.5 43.5t-119 124.5t-40.5 193q0 84 23 150.5t67.5 114t108 72.5t143.5 25q62 0 120 -16.5t106 -53.5q12 -9 15.5 -21t0.5 -24t-11.5 -21t-21 -10.5t-26.5 7.5q-41 30 -85.5 43t-97.5 13q-79 0 -134 -32.5t-82.5 -95t-27.5 -151.5q0 -137 64.5 -208
t191.5 -71q47 0 91.5 9t85.5 25l-20 -50v241h-136q-18 0 -28.5 10t-10.5 27t10.5 26t28.5 9h177q18 0 28.5 -10t10.5 -29v-257q0 -16 -6 -27.5t-20 -16.5q-42 -17 -100 -28t-114 -11zM301 769q-10 -11 -21.5 -12t-20.5 5t-11.5 15.5t5.5 21.5l85 117q11 17 25 24t31 7t31 -7
t26 -24l84 -117q8 -12 5.5 -21.5t-11 -15.5t-20 -5t-21.5 12l-94 111z" />
    <glyph glyph-name="gcircumflex" unicode="&#x11d;" horiz-adv-x="590" 
d="M292 -189q-54 0 -104.5 12t-91.5 37q-13 8 -17.5 18.5t-2 21.5t10 19.5t18 11t21.5 -4.5q44 -25 84 -34t76 -9q71 0 106.5 36.5t35.5 106.5v108h9q-14 -56 -62.5 -89t-112.5 -33q-66 0 -115 30.5t-76 85t-27 126.5q0 55 15.5 99.5t44 76t68.5 49t90 17.5q65 0 113 -33
t62 -89l-11 -14v88q0 23 12 34.5t34 11.5q21 0 33 -11.5t12 -34.5v-410q0 -113 -57.5 -170t-167.5 -57zM282 84q45 0 77.5 20.5t50 59t17.5 90.5q0 79 -39 124.5t-106 45.5q-45 0 -77.5 -20.5t-50.5 -58.5t-18 -91q0 -78 39.5 -124t106.5 -46zM431 585q7 -13 3.5 -23
t-13 -15t-20 -3t-17.5 13l-87 139l-87 -139q-7 -11 -17.5 -13t-20 3t-13 15t3.5 23l80 148q10 18 23.5 26t30.5 8t31 -8t23 -26z" />
    <glyph glyph-name="Gbreve" unicode="&#x11e;" horiz-adv-x="729" 
d="M410 -9q-113 0 -191.5 43.5t-119 124.5t-40.5 193q0 84 23 150.5t67.5 114t108 72.5t143.5 25q62 0 120 -16.5t106 -53.5q12 -9 15.5 -21t0.5 -24t-11.5 -21t-21 -10.5t-26.5 7.5q-41 30 -85.5 43t-97.5 13q-79 0 -134 -32.5t-82.5 -95t-27.5 -151.5q0 -137 64.5 -208
t191.5 -71q47 0 91.5 9t85.5 25l-20 -50v241h-136q-18 0 -28.5 10t-10.5 27t10.5 26t28.5 9h177q18 0 28.5 -10t10.5 -29v-257q0 -16 -6 -27.5t-20 -16.5q-42 -17 -100 -28t-114 -11zM394 760q-60 0 -106.5 35t-61.5 106q-4 16 4 26t19 10q10 1 16.5 -2.5t10.5 -9t6 -12.5
q10 -52 42.5 -73t69.5 -21q38 0 70 21t42 73q2 7 6 12.5t11 9t16 2.5q11 0 19 -10t4 -26q-15 -71 -61.5 -106t-106.5 -35z" />
    <glyph glyph-name="gbreve" unicode="&#x11f;" horiz-adv-x="590" 
d="M292 -189q-54 0 -104.5 12t-91.5 37q-13 8 -17.5 18.5t-2 21.5t10 19.5t18 11t21.5 -4.5q44 -25 84 -34t76 -9q71 0 106.5 36.5t35.5 106.5v108h9q-14 -56 -62.5 -89t-112.5 -33q-66 0 -115 30.5t-76 85t-27 126.5q0 55 15.5 99.5t44 76t68.5 49t90 17.5q65 0 113 -33
t62 -89l-11 -14v88q0 23 12 34.5t34 11.5q21 0 33 -11.5t12 -34.5v-410q0 -113 -57.5 -170t-167.5 -57zM282 84q45 0 77.5 20.5t50 59t17.5 90.5q0 79 -39 124.5t-106 45.5q-45 0 -77.5 -20.5t-50.5 -58.5t-18 -91q0 -78 39.5 -124t106.5 -46zM297 549q-44 0 -76 20.5
t-52 57t-27 85.5q-2 16 6 25.5t20 10.5q13 0 21 -7t10 -22q7 -55 33 -82.5t65 -27.5t65.5 27.5t32.5 82.5q2 15 10.5 22t20.5 7q13 -1 20.5 -10.5t5.5 -25.5q-6 -49 -26 -85.5t-52.5 -57t-76.5 -20.5z" />
    <glyph glyph-name="Gdotaccent" unicode="&#x120;" horiz-adv-x="729" 
d="M410 -9q-113 0 -191.5 43.5t-119 124.5t-40.5 193q0 84 23 150.5t67.5 114t108 72.5t143.5 25q62 0 120 -16.5t106 -53.5q12 -9 15.5 -21t0.5 -24t-11.5 -21t-21 -10.5t-26.5 7.5q-41 30 -85.5 43t-97.5 13q-79 0 -134 -32.5t-82.5 -95t-27.5 -151.5q0 -137 64.5 -208
t191.5 -71q47 0 91.5 9t85.5 25l-20 -50v241h-136q-18 0 -28.5 10t-10.5 27t10.5 26t28.5 9h177q18 0 28.5 -10t10.5 -29v-257q0 -16 -6 -27.5t-20 -16.5q-42 -17 -100 -28t-114 -11zM394 800q-25 0 -38.5 13.5t-13.5 37.5q0 25 13.5 38t38.5 13q26 0 39 -13t13 -38
q0 -24 -13 -37.5t-39 -13.5z" />
    <glyph glyph-name="gdotaccent" unicode="&#x121;" horiz-adv-x="590" 
d="M292 -189q-54 0 -104.5 12t-91.5 37q-13 8 -17.5 18.5t-2 21.5t10 19.5t18 11t21.5 -4.5q44 -25 84 -34t76 -9q71 0 106.5 36.5t35.5 106.5v108h9q-14 -56 -62.5 -89t-112.5 -33q-66 0 -115 30.5t-76 85t-27 126.5q0 55 15.5 99.5t44 76t68.5 49t90 17.5q65 0 113 -33
t62 -89l-11 -14v88q0 23 12 34.5t34 11.5q21 0 33 -11.5t12 -34.5v-410q0 -113 -57.5 -170t-167.5 -57zM282 84q45 0 77.5 20.5t50 59t17.5 90.5q0 79 -39 124.5t-106 45.5q-45 0 -77.5 -20.5t-50.5 -58.5t-18 -91q0 -78 39.5 -124t106.5 -46zM297 602q-25 0 -39 14t-14 38
q0 25 14 37.5t39 12.5q26 0 39.5 -12.5t13.5 -37.5t-13.5 -38.5t-39.5 -13.5z" />
    <glyph glyph-name="uni0122" unicode="&#x122;" horiz-adv-x="729" 
d="M410 -9q-113 0 -191.5 43.5t-119 124.5t-40.5 193q0 84 23 150.5t67.5 114t108 72.5t143.5 25q62 0 120 -16.5t106 -53.5q12 -9 15.5 -21t0.5 -24t-11.5 -21t-21 -10.5t-26.5 7.5q-41 30 -85.5 43t-97.5 13q-79 0 -134 -32.5t-82.5 -95t-27.5 -151.5q0 -137 64.5 -208
t191.5 -71q47 0 91.5 9t85.5 25l-20 -50v241h-136q-18 0 -28.5 10t-10.5 27t10.5 26t28.5 9h177q18 0 28.5 -10t10.5 -29v-257q0 -16 -6 -27.5t-20 -16.5q-42 -17 -100 -28t-114 -11zM418 -252q-9 -11 -19.5 -13t-18 3.5t-9 15.5t7.5 23q11 15 16 33t5 32l3 -16
q-27 0 -42 14t-15 37t14.5 36t39.5 13q26 0 41 -14.5t15 -45.5q0 -19 -4 -40.5t-12.5 -41.5t-21.5 -36z" />
    <glyph glyph-name="uni0123" unicode="&#x123;" horiz-adv-x="590" 
d="M292 -189q-54 0 -104.5 12t-91.5 37q-13 8 -17.5 18.5t-2 21.5t10 19.5t18 11t21.5 -4.5q44 -25 84 -34t76 -9q71 0 106.5 36.5t35.5 106.5v108h9q-14 -56 -62.5 -89t-112.5 -33q-66 0 -115 30.5t-76 85t-27 126.5q0 55 15.5 99.5t44 76t68.5 49t90 17.5q65 0 113 -33
t62 -89l-11 -14v88q0 23 12 34.5t34 11.5q21 0 33 -11.5t12 -34.5v-410q0 -113 -57.5 -170t-167.5 -57zM282 84q45 0 77.5 20.5t50 59t17.5 90.5q0 79 -39 124.5t-106 45.5q-45 0 -77.5 -20.5t-50.5 -58.5t-18 -91q0 -78 39.5 -124t106.5 -46zM298 562q-26 0 -41 15t-15 45
q0 19 4 40.5t13 42t21 35.5q9 11 19.5 13t18 -3.5t9 -15.5t-7.5 -23q-11 -15 -16 -32.5t-5 -32.5l-3 16q27 0 42 -13t15 -38q0 -23 -14.5 -36t-39.5 -13z" />
    <glyph glyph-name="Hcircumflex" unicode="&#x124;" horiz-adv-x="764" 
d="M131 -7q-22 0 -34 12.5t-12 35.5v623q0 24 12 36t34 12q23 0 35 -12t12 -36v-267h408v267q0 24 12 36t35 12q22 0 34 -12t12 -36v-623q0 -23 -12 -35.5t-34 -12.5q-23 0 -35 12.5t-12 35.5v277h-408v-277q0 -23 -11.5 -35.5t-35.5 -12.5zM288 769q-10 -11 -21.5 -12
t-20.5 5t-11.5 15.5t5.5 21.5l85 117q11 17 25 24t31 7t31 -7t26 -24l84 -117q8 -12 5.5 -21.5t-11 -15.5t-20 -5t-21.5 12l-94 111z" />
    <glyph glyph-name="hcircumflex" unicode="&#x125;" horiz-adv-x="572" 
d="M118 -7q-21 0 -33 12t-12 35v626q0 23 12 34.5t33 11.5q22 0 34 -11.5t12 -34.5v-285h-13q21 57 68.5 86t108.5 29q59 0 97 -21.5t57 -64.5t19 -108v-262q0 -23 -11.5 -35t-33.5 -12t-34 12t-12 35v257q0 65 -25 95t-80 30q-64 0 -102.5 -39.5t-38.5 -106.5v-236
q0 -47 -46 -47zM194 769q-10 -11 -21.5 -12t-20.5 5t-11.5 15.5t5.5 21.5l85 117q11 17 25 24t31 7t31 -7t26 -24l84 -117q8 -12 5.5 -21.5t-11 -15.5t-20 -5t-21.5 12l-94 111z" />
    <glyph glyph-name="Hbar" unicode="&#x126;" horiz-adv-x="802" 
d="M151 -7q-23 0 -35 12.5t-12 35.5v489l26 -12h-85q-38 0 -38 35q0 17 10 26.5t28 9.5h76l-17 -27v102q0 24 12 36t35 12q22 0 34 -12t12 -36v-102l-14 27h437l-14 -27v102q0 24 12 36t35 12q22 0 34 -12t12 -36v-102l-20 27h79q38 0 38 -36q0 -17 -10 -26t-28 -9h-88
l29 14v-491q0 -23 -12 -35.5t-34 -12.5q-23 0 -35 12.5t-12 35.5v271h-409v-271q0 -23 -11.5 -35.5t-34.5 -12.5zM197 391h409v127h-409v-127z" />
    <glyph glyph-name="hbar" unicode="&#x127;" horiz-adv-x="572" 
d="M118 -7q-21 0 -33 12t-12 35v511h-56q-17 0 -26.5 9t-9.5 25q0 33 36 33h76l-20 -32v83q0 20 12 31.5t33 11.5q22 0 34 -11.5t12 -31.5v-83l-20 32h177q19 0 28 -9t9 -24q0 -34 -37 -34h-157v-170h-13q21 57 68.5 86t108.5 29q59 0 97 -21.5t57 -64.5t19 -108v-262
q0 -23 -11.5 -35t-33.5 -12t-34 12t-12 35v257q0 65 -25 95t-80 30q-64 0 -102.5 -39.5t-38.5 -106.5v-236q0 -47 -46 -47z" />
    <glyph glyph-name="Itilde" unicode="&#x128;" horiz-adv-x="262" 
d="M131 -7q-22 0 -34 12.5t-12 35.5v623q0 24 12 36t34 12q23 0 35 -12t12 -36v-623q0 -23 -11.5 -35.5t-35.5 -12.5zM-54 777q-12 1 -19.5 9t-4.5 22q11 53 43 82.5t77 29.5q28 0 52 -11t46 -25.5t42.5 -25.5t40.5 -11q26 0 43 16t22 42q3 12 10.5 17t17.5 4q12 0 19.5 -8
t4.5 -22q-11 -53 -42 -83t-77 -30q-28 0 -52.5 11.5t-46.5 26t-42.5 25.5t-40.5 11q-26 0 -43 -16t-22 -42q-3 -11 -10 -16.5t-18 -5.5z" />
    <glyph glyph-name="itilde" unicode="&#x129;" horiz-adv-x="237" 
d="M118 -5q-21 0 -33 13t-12 36v399q0 24 12 36.5t33 12.5q22 0 34 -12.5t12 -36.5v-399q0 -23 -11.5 -36t-34.5 -13zM-40 586q-12 0 -18.5 7.5t-3.5 22.5q4 23 12 43t21.5 35.5t31.5 25t42 9.5t43 -11.5t35 -26t32 -25.5t35 -11q22 0 37.5 16.5t20.5 44.5q2 9 9 14t19 5
q12 -1 18.5 -8.5t3.5 -22.5q-5 -30 -18.5 -55.5t-35 -41t-53.5 -15.5q-24 0 -43 11t-35.5 25.5t-32.5 25.5t-34 11q-22 0 -37.5 -16t-20.5 -44q-2 -10 -9 -15t-19 -4z" />
    <glyph glyph-name="Imacron" unicode="&#x12a;" horiz-adv-x="262" 
d="M131 -7q-22 0 -34 12.5t-12 35.5v623q0 24 12 36t34 12q23 0 35 -12t12 -36v-623q0 -23 -11.5 -35.5t-35.5 -12.5zM-5 813q-32 0 -32 29q0 14 8 22t24 8h273q32 0 32 -30q0 -14 -8.5 -21.5t-23.5 -7.5h-273z" />
    <glyph glyph-name="imacron" unicode="&#x12b;" horiz-adv-x="237" 
d="M118 -5q-21 0 -33 13t-12 36v399q0 24 12 36.5t33 12.5q22 0 34 -12.5t12 -36.5v-399q0 -23 -11.5 -36t-34.5 -13zM-3 623q-32 0 -32 30q0 14 8 21.5t24 7.5h243q32 0 32 -29q0 -14 -8.5 -22t-23.5 -8h-243z" />
    <glyph glyph-name="Ibreve" unicode="&#x12c;" horiz-adv-x="262" 
d="M131 -7q-22 0 -34 12.5t-12 35.5v623q0 24 12 36t34 12q23 0 35 -12t12 -36v-623q0 -23 -11.5 -35.5t-35.5 -12.5zM131 760q-60 0 -106.5 35t-61.5 106q-4 16 4 26t19 10q10 1 16.5 -2.5t10.5 -9t6 -12.5q10 -52 42.5 -73t69.5 -21q38 0 70 21t42 73q2 7 6 12.5t11 9
t16 2.5q11 0 19 -10t4 -26q-15 -71 -61.5 -106t-106.5 -35z" />
    <glyph glyph-name="ibreve" unicode="&#x12d;" horiz-adv-x="237" 
d="M118 -5q-21 0 -33 13t-12 36v399q0 24 12 36.5t33 12.5q22 0 34 -12.5t12 -36.5v-399q0 -23 -11.5 -36t-34.5 -13zM118 549q-44 0 -76 20.5t-52 57t-27 85.5q-2 16 6 25.5t20 10.5q13 0 21 -7t10 -22q7 -55 33 -82.5t65 -27.5t65.5 27.5t32.5 82.5q2 15 10.5 22t20.5 7
q13 -1 20.5 -10.5t5.5 -25.5q-6 -49 -26 -85.5t-52.5 -57t-76.5 -20.5z" />
    <glyph glyph-name="Iogonek" unicode="&#x12e;" horiz-adv-x="262" 
d="M142 -193q-49 0 -78.5 27t-29.5 72q0 32 16.5 61t46.5 50l-2 -8q-5 5 -7.5 13.5t-2.5 18.5v623q0 24 12 36t34 12q23 0 35 -12t12 -36v-623q0 -16 -6.5 -27.5t-16.5 -16.5q-22 -11 -40 -32t-18 -49q0 -27 16.5 -41t40.5 -14q9 0 17.5 1.5t16.5 4.5q15 4 23 -1.5t10 -15.5
t-2.5 -19.5t-16.5 -14.5q-15 -6 -30.5 -7.5t-29.5 -1.5z" />
    <glyph glyph-name="iogonek" unicode="&#x12f;" horiz-adv-x="237" 
d="M129 -193q-49 0 -78.5 27t-29.5 72q0 34 19 65t52 52l-5 -17q-6 6 -10 16t-4 22v399q0 24 12 36.5t33 12.5q22 0 34 -12.5t12 -36.5v-399q0 -17 -6.5 -29t-17.5 -19q-25 -16 -40.5 -35.5t-15.5 -44.5q0 -27 16.5 -41t41.5 -14q8 0 16.5 1.5t16.5 4.5q15 4 23 -1.5
t10 -15.5t-2.5 -19.5t-16.5 -14.5q-15 -6 -30.5 -7.5t-29.5 -1.5zM118 600q-27 0 -42.5 14.5t-15.5 38.5q0 26 15.5 39.5t42.5 13.5q29 0 43.5 -13.5t14.5 -39.5q0 -24 -14.5 -38.5t-43.5 -14.5z" />
    <glyph glyph-name="Idotaccent" unicode="&#x130;" horiz-adv-x="262" 
d="M131 -7q-22 0 -34 12.5t-12 35.5v623q0 24 12 36t34 12q23 0 35 -12t12 -36v-623q0 -23 -11.5 -35.5t-35.5 -12.5zM131 800q-25 0 -38.5 13.5t-13.5 37.5q0 25 13.5 38t38.5 13q26 0 39 -13t13 -38q0 -24 -13 -37.5t-39 -13.5z" />
    <glyph glyph-name="dotlessi" unicode="&#x131;" horiz-adv-x="237" 
d="M118 -5q-21 0 -33 13t-12 36v399q0 24 12 36.5t33 12.5q22 0 34 -12.5t12 -36.5v-399q0 -23 -11.5 -36t-34.5 -13z" />
    <glyph glyph-name="IJ" unicode="&#x132;" horiz-adv-x="593" 
d="M131 -7q-22 0 -34 12.5t-12 35.5v623q0 24 12 36t34 12q23 0 35 -12t12 -36v-623q0 -23 -11.5 -35.5t-35.5 -12.5zM294 -6q-21 -1 -33 11t-12 30q0 14 8.5 24.5t26.5 11.5l31 3q49 4 75 34t26 82v475q0 23 12 35t34 12t34 -12t12 -35v-475q0 -59 -20.5 -100.5t-60.5 -65
t-100 -28.5z" />
    <glyph glyph-name="Jcircumflex" unicode="&#x134;" horiz-adv-x="331" 
d="M32 -6q-21 -1 -33 11t-12 30q0 14 8.5 24.5t26.5 11.5l31 3q49 4 75 34t26 82v475q0 23 12 35t34 12t34 -12t12 -35v-475q0 -59 -20.5 -100.5t-60.5 -65t-100 -28.5zM106 769q-10 -11 -21.5 -12t-20.5 5t-11.5 15.5t5.5 21.5l85 117q11 17 25 24t31 7t31 -7t26 -24
l84 -117q8 -12 5.5 -21.5t-11 -15.5t-20 -5t-21.5 12l-94 111z" />
    <glyph glyph-name="jcircumflex" unicode="&#x135;" horiz-adv-x="241" 
d="M-12 -190q-16 -1 -27 5t-15 16.5t-2 21t9.5 18t20.5 8.5q53 3 78 28.5t25 79.5v461q0 23 12 34.5t34 11.5q21 0 33 -11.5t12 -34.5v-454q0 -62 -20.5 -101.5t-60.5 -59.5t-99 -23zM256 585q7 -13 3.5 -23t-13 -15t-20 -3t-17.5 13l-87 139l-87 -139q-7 -11 -17.5 -13
t-20 3t-13 15t3.5 23l80 148q10 18 23.5 26t30.5 8t31 -8t23 -26z" />
    <glyph glyph-name="uni0136" unicode="&#x136;" horiz-adv-x="634" 
d="M131 -7q-22 0 -34 12.5t-12 35.5v624q0 23 12 35t34 12q23 0 35 -12t12 -35v-279h2l316 301q14 13 26.5 19t27.5 6q21 0 30.5 -10.5t7.5 -25t-15 -27.5l-330 -310l1 47l345 -324q16 -15 17 -31.5t-9.5 -27t-31.5 -10.5q-17 0 -28.5 7t-26.5 22l-330 309h-2v-290
q0 -23 -11.5 -35.5t-35.5 -12.5zM337 -252q-9 -11 -19.5 -13t-18 3.5t-9 15.5t7.5 23q11 15 16 33t5 32l3 -16q-27 0 -42 14t-15 37t14.5 36t39.5 13q26 0 41 -14.5t15 -45.5q0 -19 -4 -40.5t-12.5 -41.5t-21.5 -36z" />
    <glyph glyph-name="uni0137" unicode="&#x137;" horiz-adv-x="508" 
d="M118 -7q-21 0 -33 12t-12 35v626q0 23 12 34.5t33 11.5q22 0 34 -11.5t12 -34.5v-394h2l196 191q15 15 27 23t31 8t29 -9.5t10 -24t-14 -28.5l-208 -202v45l227 -219q14 -14 13.5 -29t-11 -24.5t-27.5 -9.5q-20 0 -32.5 8t-28.5 25l-212 200h-2v-186q0 -47 -46 -47z
M271 -252q-9 -11 -19.5 -13t-18 3.5t-9 15.5t7.5 23q11 15 16 33t5 32l3 -16q-27 0 -42 14t-15 37t14.5 36t39.5 13q26 0 41 -14.5t15 -45.5q0 -19 -4 -40.5t-12.5 -41.5t-21.5 -36z" />
    <glyph glyph-name="kgreenlandic" unicode="&#x138;" horiz-adv-x="508" 
d="M118 -7q-21 0 -33 12t-12 35v408q0 23 12 34.5t33 11.5q22 0 34 -11.5t12 -34.5v-176h2l196 191q15 15 27 23t30 8q20 0 30 -9.5t10 -24t-14 -28.5l-208 -202v45l227 -219q14 -14 13.5 -29t-11 -24.5t-27.5 -9.5q-20 0 -32.5 8t-28.5 25l-212 200h-2v-186
q0 -23 -11.5 -35t-34.5 -12z" />
    <glyph glyph-name="Lacute" unicode="&#x139;" horiz-adv-x="548" 
d="M132 0q-22 0 -34.5 13t-12.5 35v614q0 23 12 35t34 12q23 0 35 -12t12 -35v-582h318q21 0 31.5 -10t10.5 -29q0 -20 -10.5 -30.5t-31.5 -10.5h-364zM170 770q-9 -10 -20.5 -11t-20.5 5.5t-11.5 16.5t4.5 21l87 127q9 13 21 16t24 -1t19.5 -12.5t8 -20t-9.5 -23.5z" />
    <glyph glyph-name="lacute" unicode="&#x13a;" horiz-adv-x="301" 
d="M226 -9q-75 0 -114 44.5t-39 128.5v502q0 23 12 34.5t33 11.5q22 0 34 -11.5t12 -34.5v-495q0 -52 21.5 -77.5t61.5 -25.5q9 0 16 0.5t14 1.5q11 1 16 -6t5 -28q0 -19 -8.5 -29.5t-27.5 -13.5q-9 -1 -18 -1.5t-18 -0.5zM157 770q-9 -10 -20.5 -11t-20.5 5.5t-11.5 16.5
t4.5 21l87 127q9 13 21 16t24 -1t19.5 -12.5t8 -20t-9.5 -23.5z" />
    <glyph glyph-name="uni013B" unicode="&#x13b;" horiz-adv-x="548" 
d="M132 0q-22 0 -34.5 13t-12.5 35v614q0 23 12 35t34 12q23 0 35 -12t12 -35v-582h318q21 0 31.5 -10t10.5 -29q0 -20 -10.5 -30.5t-31.5 -10.5h-364zM325 -252q-9 -11 -19.5 -13t-18 3.5t-9 15.5t7.5 23q11 15 16 33t5 32l3 -16q-27 0 -42 14t-15 37t14.5 36t39.5 13
q26 0 41 -14.5t15 -45.5q0 -19 -4 -40.5t-12.5 -41.5t-21.5 -36z" />
    <glyph glyph-name="uni013C" unicode="&#x13c;" horiz-adv-x="301" 
d="M226 -9q-75 0 -114 44.5t-39 128.5v502q0 23 12 34.5t33 11.5q22 0 34 -11.5t12 -34.5v-495q0 -52 21.5 -77.5t61.5 -25.5q9 0 16 0.5t14 1.5q11 1 16 -6t5 -28q0 -19 -8.5 -29.5t-27.5 -13.5q-9 -1 -18 -1.5t-18 -0.5zM204 -252q-9 -11 -19.5 -13t-18 3.5t-9 15.5
t7.5 23q11 15 16 33t5 32l3 -16q-27 0 -42 14t-15 37t14.5 36t39.5 13q26 0 41 -14.5t15 -45.5q0 -19 -4 -40.5t-12.5 -41.5t-21.5 -36z" />
    <glyph glyph-name="Lcaron" unicode="&#x13d;" horiz-adv-x="548" 
d="M132 0q-22 0 -34.5 13t-12.5 35v614q0 23 12 35t34 12q23 0 35 -12t12 -35v-582h318q21 0 31.5 -10t10.5 -29q0 -20 -10.5 -30.5t-31.5 -10.5h-364zM318 472q-13 0 -20.5 7.5t-7.5 21.5v172q0 19 10 29t29 10q18 0 27.5 -10t7.5 -31l-16 -171q-1 -28 -30 -28z" />
    <glyph glyph-name="lcaron" unicode="&#x13e;" horiz-adv-x="301" 
d="M226 -9q-75 0 -114 44.5t-39 128.5v502q0 23 12 34.5t33 11.5q22 0 34 -11.5t12 -34.5v-495q0 -52 21.5 -77.5t61.5 -25.5q9 0 16 0.5t14 1.5q11 1 16 -6t5 -28q0 -19 -8.5 -29.5t-27.5 -13.5q-9 -1 -18 -1.5t-18 -0.5zM231 509q-10 0 -16.5 6.5t-6.5 17.5v144
q0 35 35 35q17 0 25 -9.5t6 -26.5l-19 -144q-3 -23 -24 -23z" />
    <glyph glyph-name="Ldot" unicode="&#x13f;" horiz-adv-x="548" 
d="M132 0q-22 0 -34.5 13t-12.5 35v614q0 23 12 35t34 12q23 0 35 -12t12 -35v-582h318q21 0 31.5 -10t10.5 -29q0 -20 -10.5 -30.5t-31.5 -10.5h-364zM409 331q-27 0 -43.5 17t-16.5 42q0 27 16.5 43.5t43.5 16.5t43 -16.5t16 -43.5q0 -25 -16 -42t-43 -17z" />
    <glyph glyph-name="ldot" unicode="&#x140;" horiz-adv-x="341" 
d="M226 -9q-75 0 -114 44.5t-39 128.5v502q0 23 12 34.5t33 11.5q22 0 34 -11.5t12 -34.5v-495q0 -52 21.5 -77.5t61.5 -25.5q9 0 16 0.5t14 1.5q11 1 16 -6t5 -28q0 -19 -8.5 -29.5t-27.5 -13.5q-9 -1 -18 -1.5t-18 -0.5zM291 293q-27 0 -43.5 17t-16.5 42q0 27 16.5 43.5
t43.5 16.5t43 -16.5t16 -43.5q0 -25 -16 -42t-43 -17z" />
    <glyph glyph-name="Lslash" unicode="&#x141;" horiz-adv-x="548" 
d="M132 0q-22 0 -34.5 13t-12.5 35v614q0 23 12 35t34 12q23 0 35 -12t12 -35v-582h318q21 0 31.5 -10t10.5 -29q0 -20 -10.5 -30.5t-31.5 -10.5h-364zM35 264q-14 -8 -26.5 -6.5t-20.5 9t-10.5 19t2 23t19.5 19.5l319 184q14 8 26.5 6t20.5 -9.5t10.5 -19t-2.5 -22.5
t-19 -20z" />
    <glyph glyph-name="lslash" unicode="&#x142;" horiz-adv-x="301" 
d="M226 -9q-75 0 -114 44.5t-39 128.5v502q0 23 12 34.5t33 11.5q22 0 34 -11.5t12 -34.5v-495q0 -52 21.5 -77.5t61.5 -25.5q9 0 16 0.5t14 1.5q11 1 16 -6t5 -28q0 -19 -8.5 -29.5t-27.5 -13.5q-9 -1 -18 -1.5t-18 -0.5zM37 261q-14 -8 -26 -6.5t-20 9.5t-11 18.5t1.5 22
t19.5 20.5l219 127q14 8 26 6.5t20.5 -9.5t11 -18.5t-2 -22t-19.5 -19.5z" />
    <glyph glyph-name="Nacute" unicode="&#x143;" horiz-adv-x="741" 
d="M128 -7q-20 0 -31.5 12t-11.5 33v627q0 23 11 35t29 12q17 0 26 -6t20 -21l424 -562h-25v544q0 22 11.5 33.5t32.5 11.5t32 -11.5t11 -33.5v-629q0 -21 -10.5 -33t-27.5 -12q-16 0 -26.5 6.5t-21.5 21.5l-423 562h23v-545q0 -21 -11 -33t-32 -12zM410 770
q-9 -10 -20.5 -11t-20.5 5.5t-11.5 16.5t4.5 21l87 127q9 13 21 16t24 -1t19.5 -12.5t8 -20t-9.5 -23.5z" />
    <glyph glyph-name="nacute" unicode="&#x144;" horiz-adv-x="572" 
d="M118 -7q-21 0 -33 12t-12 35v408q0 23 12 34.5t33 11.5t32.5 -11.5t11.5 -34.5v-82l-11 15q21 57 68.5 86t108.5 29q59 0 97 -21t57 -64t19 -109v-262q0 -23 -11.5 -35t-33.5 -12t-34 12t-12 35v257q0 65 -25 95t-80 30q-64 0 -102.5 -39.5t-38.5 -106.5v-236
q0 -47 -46 -47zM323 557q-8 -11 -18.5 -13t-20.5 3.5t-14 15.5t2 23l82 159q7 16 19 20.5t24.5 1.5t21.5 -11.5t10.5 -21t-6.5 -25.5z" />
    <glyph glyph-name="uni0145" unicode="&#x145;" horiz-adv-x="741" 
d="M128 -7q-20 0 -31.5 12t-11.5 33v627q0 23 11 35t29 12q17 0 26 -6t20 -21l424 -562h-25v544q0 22 11.5 33.5t32.5 11.5t32 -11.5t11 -33.5v-629q0 -21 -10.5 -33t-27.5 -12q-16 0 -26.5 6.5t-21.5 21.5l-423 562h23v-545q0 -21 -11 -33t-32 -12zM388 -252
q-9 -11 -19.5 -13t-18 3.5t-9 15.5t7.5 23q11 15 16 33t5 32l3 -16q-27 0 -42 14t-15 37t14.5 36t39.5 13q26 0 41 -14.5t15 -45.5q0 -19 -4 -40.5t-12.5 -41.5t-21.5 -36z" />
    <glyph glyph-name="uni0146" unicode="&#x146;" horiz-adv-x="572" 
d="M118 -7q-21 0 -33 12t-12 35v408q0 23 12 34.5t33 11.5t32.5 -11.5t11.5 -34.5v-82l-11 15q21 57 68.5 86t108.5 29q59 0 97 -21t57 -64t19 -109v-262q0 -23 -11.5 -35t-33.5 -12t-34 12t-12 35v257q0 65 -25 95t-80 30q-64 0 -102.5 -39.5t-38.5 -106.5v-236
q0 -47 -46 -47zM304 -252q-9 -11 -19.5 -13t-18 3.5t-9 15.5t7.5 23q11 15 16 33t5 32l3 -16q-27 0 -42 14t-15 37t14.5 36t39.5 13q26 0 41 -14.5t15 -45.5q0 -19 -4 -40.5t-12.5 -41.5t-21.5 -36z" />
    <glyph glyph-name="Ncaron" unicode="&#x147;" horiz-adv-x="741" 
d="M128 -7q-20 0 -31.5 12t-11.5 33v627q0 23 11 35t29 12q17 0 26 -6t20 -21l424 -562h-25v544q0 22 11.5 33.5t32.5 11.5t32 -11.5t11 -33.5v-629q0 -21 -10.5 -33t-27.5 -12q-16 0 -26.5 6.5t-21.5 21.5l-423 562h23v-545q0 -21 -11 -33t-32 -12zM371 756q-17 0 -31 7
t-25 23l-85 118q-8 11 -5.5 21t12 16t20.5 4.5t21 -12.5l93 -112l94 112q10 11 21 12.5t20 -4.5t11.5 -15.5t-5.5 -21.5l-84 -118q-11 -16 -25.5 -23t-31.5 -7z" />
    <glyph glyph-name="ncaron" unicode="&#x148;" horiz-adv-x="572" 
d="M118 -7q-21 0 -33 12t-12 35v408q0 23 12 34.5t33 11.5t32.5 -11.5t11.5 -34.5v-82l-11 15q21 57 68.5 86t108.5 29q59 0 97 -21t57 -64t19 -109v-262q0 -23 -11.5 -35t-33.5 -12t-34 12t-12 35v257q0 65 -25 95t-80 30q-64 0 -102.5 -39.5t-38.5 -106.5v-236
q0 -47 -46 -47zM287 538q-17 0 -30.5 9t-23.5 27l-80 147q-7 12 -3.5 22.5t13 15t20 3t17.5 -12.5l87 -139l87 139q7 11 17.5 12.5t20 -3t13 -15t-3.5 -22.5l-80 -147q-9 -18 -23 -27t-31 -9z" />
    <glyph glyph-name="napostrophe" unicode="&#x149;" horiz-adv-x="572" 
d="M52 585q-8 -11 -18.5 -12.5t-18.5 3.5t-9 15t8 23q11 16 16 33.5t5 31.5l3 -16q-27 0 -42.5 13.5t-15.5 36.5q0 24 14.5 37.5t40.5 13.5t40.5 -15t14.5 -46q0 -19 -4 -40.5t-12 -41.5t-22 -36zM118 -7q-21 0 -33 12t-12 35v408q0 23 12 34.5t33 11.5t32.5 -11.5
t11.5 -34.5v-82l-11 15q21 57 68.5 86t108.5 29q59 0 97 -21t57 -64t19 -109v-262q0 -23 -11.5 -35t-33.5 -12t-34 12t-12 35v257q0 65 -25 95t-80 30q-64 0 -102.5 -39.5t-38.5 -106.5v-236q0 -47 -46 -47z" />
    <glyph glyph-name="Eng" unicode="&#x14a;" horiz-adv-x="741" 
d="M476 -190q-17 -1 -27.5 5t-14 16.5t-2 21t9.5 18t21 8.5q53 4 80 28t27 80v53l17 -40l-439 583h23v-545q0 -21 -11 -33t-32 -12q-20 0 -31.5 12t-11.5 33v627q0 23 11 35t29 12q17 0 26 -6t20 -21l424 -562h-25v544q0 22 11.5 33.5t32.5 11.5t32 -11.5t11 -33.5v-670
q0 -97 -46.5 -140t-134.5 -47z" />
    <glyph glyph-name="eng" unicode="&#x14b;" horiz-adv-x="572" 
d="M317 -191q-17 -2 -27 4.5t-14 17t-2 21t9.5 18t21.5 8.5q54 5 79.5 29t25.5 80v310q0 65 -25 95t-80 30q-64 0 -102.5 -39.5t-38.5 -106.5v-236q0 -47 -46 -47q-21 0 -33 12t-12 35v408q0 23 12 34.5t33 11.5t32.5 -11.5t11.5 -34.5v-82l-11 15q21 57 68.5 86t108.5 29
q59 0 97 -21t57 -64t19 -109v-308q0 -62 -20.5 -101.5t-61 -60t-102.5 -23.5z" />
    <glyph glyph-name="Omacron" unicode="&#x14c;" horiz-adv-x="771" 
d="M386 -9q-100 0 -173 44.5t-113.5 126t-40.5 191.5q0 83 23 149.5t65.5 114t103 72.5t135.5 25q100 0 173 -44t113 -125t40 -191q0 -83 -23 -150t-65.5 -115t-102.5 -73t-135 -25zM386 73q72 0 123 33t78.5 96t27.5 151q0 133 -59.5 206t-169.5 73q-72 0 -123.5 -32.5
t-78.5 -95t-27 -151.5q0 -132 60 -206t169 -74zM249 813q-32 0 -32 29q0 14 8 22t24 8h273q32 0 32 -30q0 -14 -8.5 -21.5t-23.5 -7.5h-273z" />
    <glyph glyph-name="omacron" unicode="&#x14d;" horiz-adv-x="560" 
d="M280 -9q-72 0 -125 31t-82 88t-29 134q0 58 16.5 104.5t47.5 79.5t74.5 50.5t97.5 17.5q72 0 125 -31t82 -87.5t29 -133.5q0 -58 -16.5 -105t-47.5 -80t-74.5 -50.5t-97.5 -17.5zM280 63q44 0 76.5 21t50 61t17.5 99q0 88 -39 134t-105 46q-43 0 -75.5 -20.5t-50.5 -60.5
t-18 -99q0 -88 39.5 -134.5t104.5 -46.5zM159 623q-32 0 -32 30q0 14 8 21.5t24 7.5h243q32 0 32 -29q0 -14 -8.5 -22t-23.5 -8h-243z" />
    <glyph glyph-name="Obreve" unicode="&#x14e;" horiz-adv-x="771" 
d="M386 -9q-100 0 -173 44.5t-113.5 126t-40.5 191.5q0 83 23 149.5t65.5 114t103 72.5t135.5 25q100 0 173 -44t113 -125t40 -191q0 -83 -23 -150t-65.5 -115t-102.5 -73t-135 -25zM386 73q72 0 123 33t78.5 96t27.5 151q0 133 -59.5 206t-169.5 73q-72 0 -123.5 -32.5
t-78.5 -95t-27 -151.5q0 -132 60 -206t169 -74zM385 760q-60 0 -106.5 35t-61.5 106q-4 16 4 26t19 10q10 1 16.5 -2.5t10.5 -9t6 -12.5q10 -52 42.5 -73t69.5 -21q38 0 70 21t42 73q2 7 6 12.5t11 9t16 2.5q11 0 19 -10t4 -26q-15 -71 -61.5 -106t-106.5 -35z" />
    <glyph glyph-name="obreve" unicode="&#x14f;" horiz-adv-x="560" 
d="M280 -9q-72 0 -125 31t-82 88t-29 134q0 58 16.5 104.5t47.5 79.5t74.5 50.5t97.5 17.5q72 0 125 -31t82 -87.5t29 -133.5q0 -58 -16.5 -105t-47.5 -80t-74.5 -50.5t-97.5 -17.5zM280 63q44 0 76.5 21t50 61t17.5 99q0 88 -39 134t-105 46q-43 0 -75.5 -20.5t-50.5 -60.5
t-18 -99q0 -88 39.5 -134.5t104.5 -46.5zM280 549q-44 0 -76 20.5t-52 57t-27 85.5q-2 16 6 25.5t20 10.5q13 0 21 -7t10 -22q7 -55 33 -82.5t65 -27.5t65.5 27.5t32.5 82.5q2 15 10.5 22t20.5 7q13 -1 20.5 -10.5t5.5 -25.5q-6 -49 -26 -85.5t-52.5 -57t-76.5 -20.5z" />
    <glyph glyph-name="Ohungarumlaut" unicode="&#x150;" horiz-adv-x="771" 
d="M386 -9q-100 0 -173 44.5t-113.5 126t-40.5 191.5q0 83 23 149.5t65.5 114t103 72.5t135.5 25q100 0 173 -44t113 -125t40 -191q0 -83 -23 -150t-65.5 -115t-102.5 -73t-135 -25zM386 73q72 0 123 33t78.5 96t27.5 151q0 133 -59.5 206t-169.5 73q-72 0 -123.5 -32.5
t-78.5 -95t-27 -151.5q0 -132 60 -206t169 -74zM350 770q-8 -10 -17.5 -12t-17.5 2t-11 13t2 19l67 133q6 14 17.5 18.5t23 2t19 -10t9 -19t-7.5 -24.5zM480 768q-8 -9 -17 -10.5t-17 3t-10 13.5t3 20l70 132q7 14 18.5 18t22.5 1.5t18.5 -10t8.5 -19t-9 -24.5z" />
    <glyph glyph-name="ohungarumlaut" unicode="&#x151;" horiz-adv-x="560" 
d="M280 -9q-72 0 -125 31t-82 88t-29 134q0 58 16.5 104.5t47.5 79.5t74.5 50.5t97.5 17.5q72 0 125 -31t82 -87.5t29 -133.5q0 -58 -16.5 -105t-47.5 -80t-74.5 -50.5t-97.5 -17.5zM280 63q44 0 76.5 21t50 61t17.5 99q0 88 -39 134t-105 46q-43 0 -75.5 -20.5t-50.5 -60.5
t-18 -99q0 -88 39.5 -134.5t104.5 -46.5zM374 559q-5 -10 -13.5 -13.5t-18 -1t-14.5 10t-2 19.5l43 162q4 16 14 23.5t22.5 7.5t22.5 -5.5t14.5 -16.5t-2.5 -26zM241 559q-4 -10 -13 -13.5t-18 -1t-14.5 10t-2.5 19.5l43 162q5 16 15 23.5t22.5 7.5t22.5 -6t14 -16.5
t-2 -25.5z" />
    <glyph glyph-name="OE" unicode="&#x152;" horiz-adv-x="1049" 
d="M419 0q-172 0 -266 91.5t-94 261.5q0 85 24 151t70 110.5t113 67.5t153 23h547q19 0 29 -9.5t10 -27.5q0 -19 -10 -29t-29 -10h-329v-233h308q19 0 29 -10t10 -28q0 -19 -10 -28.5t-29 -9.5h-308v-244h329q19 0 29 -9.5t10 -28.5t-10 -28.5t-29 -9.5h-547zM425 79h122
v547h-122q-67 0 -117.5 -16.5t-84 -51t-50 -85.5t-16.5 -120q0 -137 67 -205.5t201 -68.5z" />
    <glyph glyph-name="oe" unicode="&#x153;" horiz-adv-x="911" 
d="M278 -9q-71 0 -123.5 31t-81.5 88t-29 134q0 58 16.5 104.5t47.5 79.5t74 50.5t96 17.5q74 0 127 -37t77 -104h-24q22 64 76 102.5t127 38.5q65 0 112 -29t72.5 -82.5t25.5 -128.5q0 -16 -9.5 -24.5t-27.5 -8.5h-337v58h313l-16 -13q0 52 -15.5 88t-45 55t-73.5 19
q-47 0 -79.5 -22.5t-49 -63t-16.5 -93.5v-6q0 -89 41 -135.5t120 -46.5q31 0 64 8t65 29q15 9 27.5 8.5t20.5 -8t10 -18t-3.5 -22.5t-18.5 -21q-34 -23 -78.5 -35.5t-85.5 -12.5q-83 0 -141 36.5t-81 106.5h26q-24 -67 -76.5 -105t-126.5 -38zM280 63q44 0 76.5 21t50 61
t17.5 99q0 88 -39 134t-105 46q-43 0 -75.5 -20.5t-50.5 -60.5t-18 -99q0 -88 39.5 -134.5t104.5 -46.5z" />
    <glyph glyph-name="Racute" unicode="&#x154;" horiz-adv-x="673" 
d="M131 -7q-22 0 -34 12.5t-12 35.5v617q0 23 12.5 35t34.5 12h238q114 0 175.5 -53.5t61.5 -151.5q0 -64 -28 -109.5t-81 -69.5t-128 -24l10 14h22q40 0 69.5 -20t52.5 -64l92 -169q9 -16 8 -31t-11 -24.5t-29 -9.5q-20 0 -32 8.5t-21 25.5l-108 198q-22 42 -50 55.5
t-75 13.5h-120v-253q0 -23 -11.5 -35.5t-35.5 -12.5zM178 366h177q80 0 120 33.5t40 98.5t-40 98t-120 33h-177v-263zM381 770q-9 -10 -20.5 -11t-20.5 5.5t-11.5 16.5t4.5 21l87 127q9 13 21 16t24 -1t19.5 -12.5t8 -20t-9.5 -23.5z" />
    <glyph glyph-name="racute" unicode="&#x155;" horiz-adv-x="365" 
d="M120 -7q-23 0 -35 12t-12 35v408q0 23 12 34.5t33 11.5t32.5 -11.5t11.5 -34.5v-77h-10q16 60 60 91t111 35q16 1 26 -7.5t11 -28.5q1 -19 -9 -30.5t-31 -13.5l-18 -1q-66 -7 -101.5 -43t-35.5 -99v-234q0 -23 -11.5 -35t-33.5 -12zM254 557q-8 -11 -18.5 -13t-20.5 3.5
t-14 15.5t2 23l82 159q7 16 19 20.5t24.5 1.5t21.5 -11.5t10.5 -21t-6.5 -25.5z" />
    <glyph glyph-name="uni0156" unicode="&#x156;" horiz-adv-x="673" 
d="M131 -7q-22 0 -34 12.5t-12 35.5v617q0 23 12.5 35t34.5 12h238q114 0 175.5 -53.5t61.5 -151.5q0 -64 -28 -109.5t-81 -69.5t-128 -24l10 14h22q40 0 69.5 -20t52.5 -64l92 -169q9 -16 8 -31t-11 -24.5t-29 -9.5q-20 0 -32 8.5t-21 25.5l-108 198q-22 42 -50 55.5
t-75 13.5h-120v-253q0 -23 -11.5 -35.5t-35.5 -12.5zM178 366h177q80 0 120 33.5t40 98.5t-40 98t-120 33h-177v-263zM360 -252q-9 -11 -19.5 -13t-18 3.5t-9 15.5t7.5 23q11 15 16 33t5 32l3 -16q-27 0 -42 14t-15 37t14.5 36t39.5 13q26 0 41 -14.5t15 -45.5
q0 -19 -4 -40.5t-12.5 -41.5t-21.5 -36z" />
    <glyph glyph-name="uni0157" unicode="&#x157;" horiz-adv-x="365" 
d="M120 -7q-23 0 -35 12t-12 35v408q0 23 12 34.5t33 11.5t32.5 -11.5t11.5 -34.5v-77h-10q16 60 60 91t111 35q16 1 26 -7.5t11 -28.5q1 -19 -9 -30.5t-31 -13.5l-18 -1q-66 -7 -101.5 -43t-35.5 -99v-234q0 -23 -11.5 -35t-33.5 -12zM136 -252q-9 -11 -19.5 -13t-18 3.5
t-9 15.5t7.5 23q11 15 16 33t5 32l3 -16q-27 0 -42 14t-15 37t14.5 36t39.5 13q26 0 41 -14.5t15 -45.5q0 -19 -4 -40.5t-12.5 -41.5t-21.5 -36z" />
    <glyph glyph-name="Rcaron" unicode="&#x158;" horiz-adv-x="673" 
d="M131 -7q-22 0 -34 12.5t-12 35.5v617q0 23 12.5 35t34.5 12h238q114 0 175.5 -53.5t61.5 -151.5q0 -64 -28 -109.5t-81 -69.5t-128 -24l10 14h22q40 0 69.5 -20t52.5 -64l92 -169q9 -16 8 -31t-11 -24.5t-29 -9.5q-20 0 -32 8.5t-21 25.5l-108 198q-22 42 -50 55.5
t-75 13.5h-120v-253q0 -23 -11.5 -35.5t-35.5 -12.5zM178 366h177q80 0 120 33.5t40 98.5t-40 98t-120 33h-177v-263zM342 756q-17 0 -31 7t-25 23l-85 118q-8 11 -5.5 21t12 16t20.5 4.5t21 -12.5l93 -112l94 112q10 11 21 12.5t20 -4.5t11.5 -15.5t-5.5 -21.5l-84 -118
q-11 -16 -25.5 -23t-31.5 -7z" />
    <glyph glyph-name="rcaron" unicode="&#x159;" horiz-adv-x="365" 
d="M120 -7q-23 0 -35 12t-12 35v408q0 23 12 34.5t33 11.5t32.5 -11.5t11.5 -34.5v-77h-10q16 60 60 91t111 35q16 1 26 -7.5t11 -28.5q1 -19 -9 -30.5t-31 -13.5l-18 -1q-66 -7 -101.5 -43t-35.5 -99v-234q0 -23 -11.5 -35t-33.5 -12zM218 538q-17 0 -30.5 9t-23.5 27
l-80 147q-7 12 -3.5 22.5t13 15t20 3t17.5 -12.5l87 -139l87 139q7 11 17.5 12.5t20 -3t13 -15t-3.5 -22.5l-80 -147q-9 -18 -23 -27t-31 -9z" />
    <glyph glyph-name="Sacute" unicode="&#x15a;" horiz-adv-x="618" 
d="M316 -9q-47 0 -91 7.5t-83 22.5t-70 37q-13 9 -18.5 22t-3 25.5t11 21.5t20.5 11t26 -8q46 -31 96.5 -45t111.5 -14q88 0 129.5 32t41.5 84q0 43 -30 67.5t-101 38.5l-106 22q-94 20 -140.5 66t-46.5 123q0 47 19 85.5t54 66.5t82.5 43t105.5 15q62 0 116.5 -17t98.5 -50
q12 -9 16 -21.5t1.5 -24.5t-11 -20t-21 -9t-27.5 9q-40 28 -82 40.5t-92 12.5q-51 0 -88.5 -16t-58 -44.5t-20.5 -66.5q0 -46 28 -72t94 -40l105 -21q100 -21 148.5 -64.5t48.5 -116.5q0 -46 -18.5 -83t-52.5 -63.5t-83 -41t-110 -14.5zM355 770q-9 -10 -20.5 -11t-20.5 5.5
t-11.5 16.5t4.5 21l87 127q9 13 21 16t24 -1t19.5 -12.5t8 -20t-9.5 -23.5z" />
    <glyph glyph-name="sacute" unicode="&#x15b;" horiz-adv-x="483" 
d="M241 -9q-45 0 -90.5 10.5t-85.5 36.5q-11 7 -15.5 17.5t-3 21t8.5 18.5t17.5 9.5t22.5 -5.5q39 -22 75.5 -31t72.5 -9q55 0 83 20t28 53q0 28 -18.5 43.5t-57.5 23.5l-93 19q-62 14 -93.5 46.5t-31.5 83.5q0 45 24.5 78.5t68.5 51.5t101 18q44 0 83.5 -11.5t71.5 -34.5
q12 -7 15.5 -17.5t1 -21t-9.5 -17.5t-18 -8.5t-24 5.5q-29 20 -59.5 28.5t-60.5 8.5q-54 0 -81.5 -21t-27.5 -55q0 -26 16.5 -43t52.5 -25l93 -19q65 -14 98 -44.5t33 -82.5q0 -68 -53.5 -107.5t-143.5 -39.5zM286 557q-8 -11 -18.5 -13t-20.5 3.5t-14 15.5t2 23l82 159
q7 16 19 20.5t24.5 1.5t21.5 -11.5t10.5 -21t-6.5 -25.5z" />
    <glyph glyph-name="Scircumflex" unicode="&#x15c;" horiz-adv-x="618" 
d="M316 -9q-47 0 -91 7.5t-83 22.5t-70 37q-13 9 -18.5 22t-3 25.5t11 21.5t20.5 11t26 -8q46 -31 96.5 -45t111.5 -14q88 0 129.5 32t41.5 84q0 43 -30 67.5t-101 38.5l-106 22q-94 20 -140.5 66t-46.5 123q0 47 19 85.5t54 66.5t82.5 43t105.5 15q62 0 116.5 -17t98.5 -50
q12 -9 16 -21.5t1.5 -24.5t-11 -20t-21 -9t-27.5 9q-40 28 -82 40.5t-92 12.5q-51 0 -88.5 -16t-58 -44.5t-20.5 -66.5q0 -46 28 -72t94 -40l105 -21q100 -21 148.5 -64.5t48.5 -116.5q0 -46 -18.5 -83t-52.5 -63.5t-83 -41t-110 -14.5zM223 769q-10 -11 -21.5 -12t-20.5 5
t-11.5 15.5t5.5 21.5l85 117q11 17 25 24t31 7t31 -7t26 -24l84 -117q8 -12 5.5 -21.5t-11 -15.5t-20 -5t-21.5 12l-94 111z" />
    <glyph glyph-name="scircumflex" unicode="&#x15d;" horiz-adv-x="483" 
d="M241 -9q-45 0 -90.5 10.5t-85.5 36.5q-11 7 -15.5 17.5t-3 21t8.5 18.5t17.5 9.5t22.5 -5.5q39 -22 75.5 -31t72.5 -9q55 0 83 20t28 53q0 28 -18.5 43.5t-57.5 23.5l-93 19q-62 14 -93.5 46.5t-31.5 83.5q0 45 24.5 78.5t68.5 51.5t101 18q44 0 83.5 -11.5t71.5 -34.5
q12 -7 15.5 -17.5t1 -21t-9.5 -17.5t-18 -8.5t-24 5.5q-29 20 -59.5 28.5t-60.5 8.5q-54 0 -81.5 -21t-27.5 -55q0 -26 16.5 -43t52.5 -25l93 -19q65 -14 98 -44.5t33 -82.5q0 -68 -53.5 -107.5t-143.5 -39.5zM384 585q7 -13 3.5 -23t-13 -15t-20 -3t-17.5 13l-87 139
l-87 -139q-7 -11 -17.5 -13t-20 3t-13 15t3.5 23l80 148q10 18 23.5 26t30.5 8t31 -8t23 -26z" />
    <glyph glyph-name="Scedilla" unicode="&#x15e;" horiz-adv-x="618" 
d="M316 -9q-47 0 -91 7.5t-83 22.5t-70 37q-13 9 -18.5 22t-3 25.5t11 21.5t20.5 11t26 -8q46 -31 96.5 -45t111.5 -14q88 0 129.5 32t41.5 84q0 43 -30 67.5t-101 38.5l-106 22q-94 20 -140.5 66t-46.5 123q0 47 19 85.5t54 66.5t82.5 43t105.5 15q62 0 116.5 -17t98.5 -50
q12 -9 16 -21.5t1.5 -24.5t-11 -20t-21 -9t-27.5 9q-40 28 -82 40.5t-92 12.5q-51 0 -88.5 -16t-58 -44.5t-20.5 -66.5q0 -46 28 -72t94 -40l105 -21q100 -21 148.5 -64.5t48.5 -116.5q0 -46 -18.5 -83t-52.5 -63.5t-83 -41t-110 -14.5zM321 -193q-19 0 -38.5 2.5t-35.5 9.5
q-12 4 -16.5 14t-1.5 19.5t12 14t21 -0.5q12 -4 25 -6.5t29 -2.5q27 0 42.5 9t15.5 27q0 12 -9 19t-29 7q-8 0 -15.5 -0.5t-16.5 -3.5q-8 -2 -13.5 -2t-10.5 4q-4 3 -5 9t0 16l12 78h55l-13 -76l-26 8q12 3 24 5t22 2q37 0 61 -18t24 -51q0 -37 -31.5 -60t-81.5 -23z" />
    <glyph glyph-name="scedilla" unicode="&#x15f;" horiz-adv-x="483" 
d="M241 -9q-45 0 -90.5 10.5t-85.5 36.5q-11 7 -15.5 17.5t-3 21t8.5 18.5t17.5 9.5t22.5 -5.5q39 -22 75.5 -31t72.5 -9q55 0 83 20t28 53q0 28 -18.5 43.5t-57.5 23.5l-93 19q-62 14 -93.5 46.5t-31.5 83.5q0 45 24.5 78.5t68.5 51.5t101 18q44 0 83.5 -11.5t71.5 -34.5
q12 -7 15.5 -17.5t1 -21t-9.5 -17.5t-18 -8.5t-24 5.5q-29 20 -59.5 28.5t-60.5 8.5q-54 0 -81.5 -21t-27.5 -55q0 -26 16.5 -43t52.5 -25l93 -19q65 -14 98 -44.5t33 -82.5q0 -68 -53.5 -107.5t-143.5 -39.5zM244 -193q-19 0 -38.5 2.5t-35.5 9.5q-12 4 -16.5 14t-1.5 19.5
t12 14t21 -0.5q12 -4 25 -6.5t29 -2.5q27 0 42.5 9t15.5 27q0 12 -9 19t-29 7q-8 0 -15.5 -0.5t-16.5 -3.5q-8 -2 -13.5 -2t-10.5 4q-4 3 -5 9t0 16l12 78h55l-13 -76l-26 8q12 3 24 5t22 2q37 0 61 -18t24 -51q0 -37 -31.5 -60t-81.5 -23z" />
    <glyph glyph-name="Scaron" unicode="&#x160;" horiz-adv-x="618" 
d="M316 -9q-47 0 -91 7.5t-83 22.5t-70 37q-13 9 -18.5 22t-3 25.5t11 21.5t20.5 11t26 -8q46 -31 96.5 -45t111.5 -14q88 0 129.5 32t41.5 84q0 43 -30 67.5t-101 38.5l-106 22q-94 20 -140.5 66t-46.5 123q0 47 19 85.5t54 66.5t82.5 43t105.5 15q62 0 116.5 -17t98.5 -50
q12 -9 16 -21.5t1.5 -24.5t-11 -20t-21 -9t-27.5 9q-40 28 -82 40.5t-92 12.5q-51 0 -88.5 -16t-58 -44.5t-20.5 -66.5q0 -46 28 -72t94 -40l105 -21q100 -21 148.5 -64.5t48.5 -116.5q0 -46 -18.5 -83t-52.5 -63.5t-83 -41t-110 -14.5zM316 756q-17 0 -31 7t-25 23l-85 118
q-8 11 -5.5 21t12 16t20.5 4.5t21 -12.5l93 -112l94 112q10 11 21 12.5t20 -4.5t11.5 -15.5t-5.5 -21.5l-84 -118q-11 -16 -25.5 -23t-31.5 -7z" />
    <glyph glyph-name="scaron" unicode="&#x161;" horiz-adv-x="483" 
d="M241 -9q-45 0 -90.5 10.5t-85.5 36.5q-11 7 -15.5 17.5t-3 21t8.5 18.5t17.5 9.5t22.5 -5.5q39 -22 75.5 -31t72.5 -9q55 0 83 20t28 53q0 28 -18.5 43.5t-57.5 23.5l-93 19q-62 14 -93.5 46.5t-31.5 83.5q0 45 24.5 78.5t68.5 51.5t101 18q44 0 83.5 -11.5t71.5 -34.5
q12 -7 15.5 -17.5t1 -21t-9.5 -17.5t-18 -8.5t-24 5.5q-29 20 -59.5 28.5t-60.5 8.5q-54 0 -81.5 -21t-27.5 -55q0 -26 16.5 -43t52.5 -25l93 -19q65 -14 98 -44.5t33 -82.5q0 -68 -53.5 -107.5t-143.5 -39.5zM250 538q-17 0 -30.5 9t-23.5 27l-80 147q-7 12 -3.5 22.5
t13 15t20 3t17.5 -12.5l87 -139l87 139q7 11 17.5 12.5t20 -3t13 -15t-3.5 -22.5l-80 -147q-9 -18 -23 -27t-31 -9z" />
    <glyph glyph-name="uni0162" unicode="&#x162;" horiz-adv-x="607" 
d="M304 -7q-23 0 -35 12.5t-12 35.5v585h-219q-19 0 -30 10.5t-11 29.5t11 29t30 10h531q20 0 30.5 -10t10.5 -29t-10.5 -29.5t-30.5 -10.5h-219v-585q0 -23 -11.5 -35.5t-34.5 -12.5zM307 -193q-19 0 -38.5 2.5t-35.5 9.5q-12 4 -16.5 14t-1.5 19.5t12 14t21 -0.5
q12 -4 25 -6.5t29 -2.5q27 0 42.5 9t15.5 27q0 12 -9 19t-29 7q-8 0 -15.5 -0.5t-16.5 -3.5q-8 -2 -13.5 -2t-10.5 4q-4 3 -5 9t0 16l12 78h55l-13 -76l-26 8q12 3 24 5t22 2q37 0 61 -18t24 -51q0 -37 -31.5 -60t-81.5 -23z" />
    <glyph glyph-name="uni0163" unicode="&#x163;" horiz-adv-x="358" 
d="M275 -9q-59 0 -98.5 21t-59 61t-19.5 98v246h-64q-18 0 -28 9.5t-10 25.5q0 17 10 26t28 9h64v109q0 23 12 34.5t34 11.5t33.5 -11.5t11.5 -34.5v-109h121q19 0 29 -9t10 -26q0 -16 -10 -25.5t-29 -9.5h-121v-238q0 -55 23 -83t76 -28q19 0 32 3.5t23 3.5q9 1 15.5 -6
t6.5 -26q0 -14 -4.5 -25.5t-17.5 -15.5q-12 -4 -32 -7.5t-36 -3.5zM222 -193q-19 0 -38.5 2.5t-35.5 9.5q-12 4 -16.5 14t-1.5 19.5t12 14t21 -0.5q12 -4 25 -6.5t29 -2.5q27 0 42.5 9t15.5 27q0 12 -9 19t-29 7q-8 0 -15.5 -0.5t-16.5 -3.5q-8 -2 -13.5 -2t-10.5 4
q-4 3 -5 9t0 16l12 78h55l-13 -76l-26 8q12 3 24 5t22 2q37 0 61 -18t24 -51q0 -37 -31.5 -60t-81.5 -23z" />
    <glyph glyph-name="Tcaron" unicode="&#x164;" horiz-adv-x="607" 
d="M304 -7q-23 0 -35 12.5t-12 35.5v585h-219q-19 0 -30 10.5t-11 29.5t11 29t30 10h531q20 0 30.5 -10t10.5 -29t-10.5 -29.5t-30.5 -10.5h-219v-585q0 -23 -11.5 -35.5t-34.5 -12.5zM304 756q-17 0 -31 7t-25 23l-85 118q-8 11 -5.5 21t12 16t20.5 4.5t21 -12.5l93 -112
l94 112q10 11 21 12.5t20 -4.5t11.5 -15.5t-5.5 -21.5l-84 -118q-11 -16 -25.5 -23t-31.5 -7z" />
    <glyph glyph-name="tcaron" unicode="&#x165;" horiz-adv-x="358" 
d="M275 -9q-59 0 -98.5 21t-59 61t-19.5 98v246h-64q-18 0 -28 9.5t-10 25.5q0 17 10 26t28 9h64v109q0 23 12 34.5t34 11.5t33.5 -11.5t11.5 -34.5v-109h121q19 0 29 -9t10 -26q0 -16 -10 -25.5t-29 -9.5h-121v-238q0 -55 23 -83t76 -28q19 0 32 3.5t23 3.5q9 1 15.5 -6
t6.5 -26q0 -14 -4.5 -25.5t-17.5 -15.5q-12 -4 -32 -7.5t-36 -3.5zM278 525q-10 0 -16.5 6t-6.5 18v128q0 35 35 35q16 0 24.5 -9.5t5.5 -26.5l-18 -129q-1 -10 -7 -16t-17 -6z" />
    <glyph glyph-name="Tbar" unicode="&#x166;" horiz-adv-x="607" 
d="M304 -7q-23 0 -35 12.5t-12 35.5v585h-219q-19 0 -30 10.5t-11 29.5t11 29t30 10h531q20 0 30.5 -10t10.5 -29t-10.5 -29.5t-30.5 -10.5h-219v-585q0 -23 -11.5 -35.5t-34.5 -12.5zM145 322q-18 0 -27.5 9.5t-9.5 26.5t9.5 26t27.5 9h317q17 0 27 -8.5t10 -26.5
q0 -17 -10 -26.5t-27 -9.5h-317z" />
    <glyph glyph-name="tbar" unicode="&#x167;" horiz-adv-x="358" 
d="M275 -9q-59 0 -98.5 21t-59 61t-19.5 98v246h-64q-18 0 -28 9.5t-10 25.5q0 17 10 26t28 9h64v109q0 23 12 34.5t34 11.5t33.5 -11.5t11.5 -34.5v-109h121q19 0 29 -9t10 -26q0 -16 -10 -25.5t-29 -9.5h-121v-238q0 -55 23 -83t76 -28q19 0 32 3.5t23 3.5q9 1 15.5 -6
t6.5 -26q0 -14 -4.5 -25.5t-17.5 -15.5q-12 -4 -32 -7.5t-36 -3.5zM52 235q-15 0 -23.5 8t-8.5 22t8.5 22t23.5 8h232q32 0 32 -30q0 -14 -8 -22t-24 -8h-232z" />
    <glyph glyph-name="Utilde" unicode="&#x168;" horiz-adv-x="731" 
d="M366 -9q-70 0 -123.5 18.5t-89.5 55t-54.5 91t-18.5 126.5v383q0 24 12 35.5t34 11.5q23 0 35 -11.5t12 -35.5v-380q0 -107 49 -159.5t144 -52.5t144 52.5t49 159.5v380q0 24 12 35.5t34 11.5t34 -11.5t12 -35.5v-383q0 -95 -32.5 -160t-96 -98t-156.5 -33zM181 777
q-12 1 -19.5 9t-4.5 22q11 53 43 82.5t77 29.5q28 0 52 -11t46 -25.5t42.5 -25.5t40.5 -11q26 0 43 16t22 42q3 12 10.5 17t17.5 4q12 0 19.5 -8t4.5 -22q-11 -53 -42 -83t-77 -30q-28 0 -52.5 11.5t-46.5 26t-42.5 25.5t-40.5 11q-26 0 -43 -16t-22 -42q-3 -11 -10 -16.5
t-18 -5.5z" />
    <glyph glyph-name="utilde" unicode="&#x169;" horiz-adv-x="565" 
d="M247 -9q-59 0 -98.5 22t-58.5 65t-19 108v262q0 23 11.5 34.5t33.5 11.5t34 -11.5t12 -34.5v-262q0 -62 25 -91.5t79 -29.5q60 0 97.5 40t37.5 106v237q0 23 11.5 34.5t33.5 11.5t34 -11.5t12 -34.5v-408q0 -47 -44 -47q-22 0 -33.5 12t-11.5 35v87l13 -17
q-20 -58 -64.5 -88.5t-104.5 -30.5zM124 587q-12 0 -18.5 7.5t-3.5 22.5q4 23 12 43t21.5 35.5t31.5 25t42 9.5t43 -11.5t35 -26t32 -25.5t35 -11q22 0 37.5 16.5t20.5 44.5q2 9 9 14t19 5q12 -1 18.5 -8.5t3.5 -22.5q-5 -30 -18.5 -55.5t-35 -41t-53.5 -15.5q-24 0 -43 11
t-35.5 25.5t-32.5 25.5t-34 11q-22 0 -37.5 -16t-20.5 -44q-2 -10 -9 -15t-19 -4z" />
    <glyph glyph-name="Umacron" unicode="&#x16a;" horiz-adv-x="731" 
d="M366 -9q-70 0 -123.5 18.5t-89.5 55t-54.5 91t-18.5 126.5v383q0 24 12 35.5t34 11.5q23 0 35 -11.5t12 -35.5v-380q0 -107 49 -159.5t144 -52.5t144 52.5t49 159.5v380q0 24 12 35.5t34 11.5t34 -11.5t12 -35.5v-383q0 -95 -32.5 -160t-96 -98t-156.5 -33zM230 813
q-32 0 -32 29q0 14 8 22t24 8h273q32 0 32 -30q0 -14 -8.5 -21.5t-23.5 -7.5h-273z" />
    <glyph glyph-name="umacron" unicode="&#x16b;" horiz-adv-x="565" 
d="M247 -9q-59 0 -98.5 22t-58.5 65t-19 108v262q0 23 11.5 34.5t33.5 11.5t34 -11.5t12 -34.5v-262q0 -62 25 -91.5t79 -29.5q60 0 97.5 40t37.5 106v237q0 23 11.5 34.5t33.5 11.5t34 -11.5t12 -34.5v-408q0 -47 -44 -47q-22 0 -33.5 12t-11.5 35v87l13 -17
q-20 -58 -64.5 -88.5t-104.5 -30.5zM161 624q-32 0 -32 30q0 14 8 21.5t24 7.5h243q32 0 32 -29q0 -14 -8.5 -22t-23.5 -8h-243z" />
    <glyph glyph-name="Ubreve" unicode="&#x16c;" horiz-adv-x="731" 
d="M366 -9q-70 0 -123.5 18.5t-89.5 55t-54.5 91t-18.5 126.5v383q0 24 12 35.5t34 11.5q23 0 35 -11.5t12 -35.5v-380q0 -107 49 -159.5t144 -52.5t144 52.5t49 159.5v380q0 24 12 35.5t34 11.5t34 -11.5t12 -35.5v-383q0 -95 -32.5 -160t-96 -98t-156.5 -33zM366 760
q-60 0 -106.5 35t-61.5 106q-4 16 4 26t19 10q10 1 16.5 -2.5t10.5 -9t6 -12.5q10 -52 42.5 -73t69.5 -21q38 0 70 21t42 73q2 7 6 12.5t11 9t16 2.5q11 0 19 -10t4 -26q-15 -71 -61.5 -106t-106.5 -35z" />
    <glyph glyph-name="ubreve" unicode="&#x16d;" horiz-adv-x="565" 
d="M247 -9q-59 0 -98.5 22t-58.5 65t-19 108v262q0 23 11.5 34.5t33.5 11.5t34 -11.5t12 -34.5v-262q0 -62 25 -91.5t79 -29.5q60 0 97.5 40t37.5 106v237q0 23 11.5 34.5t33.5 11.5t34 -11.5t12 -34.5v-408q0 -47 -44 -47q-22 0 -33.5 12t-11.5 35v87l13 -17
q-20 -58 -64.5 -88.5t-104.5 -30.5zM282 550q-44 0 -76 20.5t-52 57t-27 85.5q-2 16 6 25.5t20 10.5q13 0 21 -7t10 -22q7 -55 33 -82.5t65 -27.5t65.5 27.5t32.5 82.5q2 15 10.5 22t20.5 7q13 -1 20.5 -10.5t5.5 -25.5q-6 -49 -26 -85.5t-52.5 -57t-76.5 -20.5z" />
    <glyph glyph-name="Uring" unicode="&#x16e;" horiz-adv-x="731" 
d="M366 -9q-70 0 -123.5 18.5t-89.5 55t-54.5 91t-18.5 126.5v383q0 24 12 35.5t34 11.5q23 0 35 -11.5t12 -35.5v-380q0 -107 49 -159.5t144 -52.5t144 52.5t49 159.5v380q0 24 12 35.5t34 11.5t34 -11.5t12 -35.5v-383q0 -95 -32.5 -160t-96 -98t-156.5 -33zM366 757
q-33 0 -60.5 16t-43.5 42.5t-16 59.5t16 59.5t43.5 42t60.5 15.5q34 0 61 -15.5t43 -42t16 -59.5t-16 -59.5t-43 -42.5t-61 -16zM366 804q31 0 50.5 20.5t19.5 50.5t-19.5 50t-50.5 20q-30 0 -50 -20t-20 -50t20 -50.5t50 -20.5z" />
    <glyph glyph-name="uring" unicode="&#x16f;" horiz-adv-x="565" 
d="M247 -9q-59 0 -98.5 22t-58.5 65t-19 108v262q0 23 11.5 34.5t33.5 11.5t34 -11.5t12 -34.5v-262q0 -62 25 -91.5t79 -29.5q60 0 97.5 40t37.5 106v237q0 23 11.5 34.5t33.5 11.5t34 -11.5t12 -34.5v-408q0 -47 -44 -47q-22 0 -33.5 12t-11.5 35v87l13 -17
q-20 -58 -64.5 -88.5t-104.5 -30.5zM282 547q-33 0 -60.5 16t-43.5 43t-16 59q0 33 16 59.5t43.5 42t60.5 15.5q34 0 61 -15.5t43 -42t16 -59.5q0 -32 -16 -59t-43 -43t-61 -16zM282 594q31 0 50.5 20.5t19.5 50.5t-19.5 50t-50.5 20q-30 0 -50 -20t-20 -50t20 -50.5
t50 -20.5z" />
    <glyph glyph-name="Uhungarumlaut" unicode="&#x170;" horiz-adv-x="731" 
d="M366 -9q-70 0 -123.5 18.5t-89.5 55t-54.5 91t-18.5 126.5v383q0 24 12 35.5t34 11.5q23 0 35 -11.5t12 -35.5v-380q0 -107 49 -159.5t144 -52.5t144 52.5t49 159.5v380q0 24 12 35.5t34 11.5t34 -11.5t12 -35.5v-383q0 -95 -32.5 -160t-96 -98t-156.5 -33zM331 770
q-8 -10 -17.5 -12t-17.5 2t-11 13t2 19l67 133q6 14 17.5 18.5t23 2t19 -10t9 -19t-7.5 -24.5zM461 768q-8 -9 -17 -10.5t-17 3t-10 13.5t3 20l70 132q7 14 18.5 18t22.5 1.5t18.5 -10t8.5 -19t-9 -24.5z" />
    <glyph glyph-name="uhungarumlaut" unicode="&#x171;" horiz-adv-x="565" 
d="M247 -9q-59 0 -98.5 22t-58.5 65t-19 108v262q0 23 11.5 34.5t33.5 11.5t34 -11.5t12 -34.5v-262q0 -62 25 -91.5t79 -29.5q60 0 97.5 40t37.5 106v237q0 23 11.5 34.5t33.5 11.5t34 -11.5t12 -34.5v-408q0 -47 -44 -47q-22 0 -33.5 12t-11.5 35v87l13 -17
q-20 -58 -64.5 -88.5t-104.5 -30.5zM376 560q-5 -10 -13.5 -13.5t-18 -1t-14.5 10t-2 19.5l43 162q4 16 14 23.5t22.5 7.5t22.5 -5.5t14.5 -16.5t-2.5 -26zM243 560q-4 -10 -13 -13.5t-18 -1t-14.5 10t-2.5 19.5l43 162q5 16 15 23.5t22.5 7.5t22.5 -6t14 -16.5t-2 -25.5z
" />
    <glyph glyph-name="Uogonek" unicode="&#x172;" horiz-adv-x="731" 
d="M366 -9q-70 0 -123.5 18.5t-89.5 55t-54.5 91t-18.5 126.5v383q0 24 12 35.5t34 11.5q23 0 35 -11.5t12 -35.5v-380q0 -107 49 -159.5t144 -52.5t144 52.5t49 159.5v380q0 24 12 35.5t34 11.5t34 -11.5t12 -35.5v-383q0 -95 -32.5 -160t-96 -98t-156.5 -33zM404 -193
q-50 0 -79.5 27t-29.5 72q0 40 26.5 75.5t71.5 55.5l30 -37q-16 -7 -31 -19t-24.5 -28.5t-9.5 -36.5q0 -27 16.5 -41t41.5 -14q8 0 16.5 1.5t16.5 4.5q15 4 23 -1.5t10.5 -15.5t-2.5 -19.5t-17 -14.5q-15 -6 -30 -7.5t-29 -1.5z" />
    <glyph glyph-name="uogonek" unicode="&#x173;" horiz-adv-x="565" 
d="M403 127l13 -17q-20 -58 -64.5 -88.5t-104.5 -30.5q-59 0 -98.5 22t-58.5 65t-19 108v262q0 23 11.5 34.5t33.5 11.5t34 -11.5t12 -34.5v-262q0 -62 25 -91.5t79 -29.5q60 0 97.5 40t37.5 106v237q0 23 11.5 34.5t33.5 11.5t34 -11.5t12 -34.5v-408q0 -20 -7.5 -30.5
t-21.5 -16.5q-22 -10 -39.5 -30t-17.5 -47t17 -41t41 -14q9 0 17 1.5t17 4.5q14 4 22.5 -1.5t10.5 -15.5t-3 -19.5t-16 -14.5q-16 -6 -31 -7.5t-29 -1.5q-49 0 -78.5 27t-29.5 72q0 36 20.5 68t56.5 54l-8 -20q-5 6 -7.5 14t-2.5 18v87z" />
    <glyph glyph-name="Wcircumflex" unicode="&#x174;" horiz-adv-x="1104" 
d="M316 -7q-20 0 -32 10t-20 32l-218 622q-9 23 2.5 39t38.5 16q19 0 30 -9t18 -30l201 -590h-36l206 588q8 21 19 31t29 10q19 0 29.5 -10t17.5 -32l202 -587h-32l203 590q7 20 18 29.5t31 9.5q23 0 34 -16t3 -39l-220 -623q-7 -21 -19 -31t-32 -10q-21 0 -33 10t-20 32
l-195 560h22l-196 -561q-8 -21 -19.5 -31t-31.5 -10zM459 769q-10 -11 -21.5 -12t-20.5 5t-11.5 15.5t5.5 21.5l85 117q11 17 25 24t31 7t31 -7t26 -24l84 -117q8 -12 5.5 -21.5t-11 -15.5t-20 -5t-21.5 12l-94 111z" />
    <glyph glyph-name="wcircumflex" unicode="&#x175;" horiz-adv-x="844" 
d="M246 -7q-19 0 -33 9.5t-22 31.5l-149 397q-7 19 -4 33t14 22t29 8q17 0 27 -8t17 -29l136 -384h-24l140 386q7 18 18.5 26.5t28.5 8.5q18 0 30 -8.5t17 -26.5l138 -386h-23l138 386q7 20 18 27.5t27 7.5q18 0 27 -9t10.5 -23.5t-4.5 -30.5l-149 -397q-7 -21 -21.5 -31
t-33.5 -10t-33.5 10t-22.5 31l-143 392h46l-143 -392q-8 -21 -22 -31t-34 -10zM556 585q7 -13 3.5 -23t-13 -15t-20 -3t-17.5 13l-87 139l-87 -139q-7 -11 -17.5 -13t-20 3t-13 15t3.5 23l80 148q10 18 23.5 26t30.5 8t31 -8t23 -26z" />
    <glyph glyph-name="Ycircumflex" unicode="&#x176;" horiz-adv-x="601" 
d="M300 -7q-22 0 -34 12.5t-12 36.5v323l20 -62l-248 344q-10 14 -9.5 29.5t11.5 25.5t30 10q15 0 27 -7t23 -23l206 -284h-23l206 284q11 17 22 23.5t28 6.5q18 0 28.5 -9.5t11 -24.5t-11.5 -31l-248 -344l20 62v-323q0 -49 -47 -49zM207 769q-10 -11 -21.5 -12t-20.5 5
t-11.5 15.5t5.5 21.5l85 117q11 17 25 24t31 7t31 -7t26 -24l84 -117q8 -12 5.5 -21.5t-11 -15.5t-20 -5t-21.5 12l-94 111z" />
    <glyph glyph-name="ycircumflex" unicode="&#x177;" horiz-adv-x="517" 
d="M185 -187q-16 0 -26.5 8.5t-12 23t5.5 30.5l68 154v-38l-189 440q-7 17 -5 31t13.5 23t31.5 9q17 0 27 -8t19 -28l157 -387h-28l160 387q8 20 19 28t30 8q17 0 26.5 -9t11.5 -23t-6 -30l-252 -583q-10 -21 -20.5 -28.5t-29.5 -7.5zM393 585q7 -13 3.5 -23t-13 -15t-20 -3
t-17.5 13l-87 139l-87 -139q-7 -11 -17.5 -13t-20 3t-13 15t3.5 23l80 148q10 18 23.5 26t30.5 8t31 -8t23 -26z" />
    <glyph glyph-name="Ydieresis" unicode="&#x178;" horiz-adv-x="601" 
d="M300 -7q-22 0 -34 12.5t-12 36.5v323l20 -62l-248 344q-10 14 -9.5 29.5t11.5 25.5t30 10q15 0 27 -7t23 -23l206 -284h-23l206 284q11 17 22 23.5t28 6.5q18 0 28.5 -9.5t11 -24.5t-11.5 -31l-248 -344l20 62v-323q0 -49 -47 -49zM389 799q-24 0 -37 13t-13 37
q0 23 13 36t37 13t37 -13t13 -36q0 -24 -12.5 -37t-37.5 -13zM212 799q-24 0 -37.5 13t-13.5 37q0 23 13.5 36t37.5 13t37 -13t13 -36q0 -24 -13 -37t-37 -13z" />
    <glyph glyph-name="Zacute" unicode="&#x179;" horiz-adv-x="593" 
d="M91 0q-18 0 -29.5 7.5t-16 20t0 28.5t16.5 33l409 570v-33h-387q-21 0 -32 10.5t-11 29.5t11 29t32 10h429q18 0 29.5 -7.5t16 -20t0.5 -28.5t-17 -33l-409 -570v33h402q21 0 32 -10t11 -29t-11 -29.5t-32 -10.5h-444zM347 770q-9 -10 -20.5 -11t-20.5 5.5t-11.5 16.5
t4.5 21l87 127q9 13 21 16t24 -1t19.5 -12.5t8 -20t-9.5 -23.5z" />
    <glyph glyph-name="zacute" unicode="&#x17a;" horiz-adv-x="466" 
d="M88 0q-15 0 -24 7t-12.5 18t0 24t14.5 26l277 365v-23h-261q-17 0 -26.5 9.5t-9.5 25.5q0 17 9.5 26t26.5 9h305q17 0 27.5 -7t14 -18t0.5 -23.5t-14 -24.5l-281 -369v25h274q36 0 36 -35q0 -16 -9.5 -25.5t-26.5 -9.5h-320zM276 557q-8 -11 -18.5 -13t-20.5 3.5
t-14 15.5t2 23l82 159q7 16 19 20.5t24.5 1.5t21.5 -11.5t10.5 -21t-6.5 -25.5z" />
    <glyph glyph-name="Zdotaccent" unicode="&#x17b;" horiz-adv-x="593" 
d="M91 0q-18 0 -29.5 7.5t-16 20t0 28.5t16.5 33l409 570v-33h-387q-21 0 -32 10.5t-11 29.5t11 29t32 10h429q18 0 29.5 -7.5t16 -20t0.5 -28.5t-17 -33l-409 -570v33h402q21 0 32 -10t11 -29t-11 -29.5t-32 -10.5h-444zM308 800q-25 0 -38.5 13.5t-13.5 37.5q0 25 13.5 38
t38.5 13q26 0 39 -13t13 -38q0 -24 -13 -37.5t-39 -13.5z" />
    <glyph glyph-name="zdotaccent" unicode="&#x17c;" horiz-adv-x="466" 
d="M88 0q-15 0 -24 7t-12.5 18t0 24t14.5 26l277 365v-23h-261q-17 0 -26.5 9.5t-9.5 25.5q0 17 9.5 26t26.5 9h305q17 0 27.5 -7t14 -18t0.5 -23.5t-14 -24.5l-281 -369v25h274q36 0 36 -35q0 -16 -9.5 -25.5t-26.5 -9.5h-320zM240 602q-25 0 -39 14t-14 38q0 25 14 37.5
t39 12.5q26 0 39.5 -12.5t13.5 -37.5t-13.5 -38.5t-39.5 -13.5z" />
    <glyph glyph-name="Zcaron" unicode="&#x17d;" horiz-adv-x="593" 
d="M91 0q-18 0 -29.5 7.5t-16 20t0 28.5t16.5 33l409 570v-33h-387q-21 0 -32 10.5t-11 29.5t11 29t32 10h429q18 0 29.5 -7.5t16 -20t0.5 -28.5t-17 -33l-409 -570v33h402q21 0 32 -10t11 -29t-11 -29.5t-32 -10.5h-444zM308 756q-17 0 -31 7t-25 23l-85 118q-8 11 -5.5 21
t12 16t20.5 4.5t21 -12.5l93 -112l94 112q10 11 21 12.5t20 -4.5t11.5 -15.5t-5.5 -21.5l-84 -118q-11 -16 -25.5 -23t-31.5 -7z" />
    <glyph glyph-name="zcaron" unicode="&#x17e;" horiz-adv-x="466" 
d="M88 0q-15 0 -24 7t-12.5 18t0 24t14.5 26l277 365v-23h-261q-17 0 -26.5 9.5t-9.5 25.5q0 17 9.5 26t26.5 9h305q17 0 27.5 -7t14 -18t0.5 -23.5t-14 -24.5l-281 -369v25h274q36 0 36 -35q0 -16 -9.5 -25.5t-26.5 -9.5h-320zM240 538q-17 0 -30.5 9t-23.5 27l-80 147
q-7 12 -3.5 22.5t13 15t20 3t17.5 -12.5l87 -139l87 139q7 11 17.5 12.5t20 -3t13 -15t-3.5 -22.5l-80 -147q-9 -18 -23 -27t-31 -9z" />
    <glyph glyph-name="uni0181" unicode="&#x181;" horiz-adv-x="809" 
d="M265 0q-24 0 -37 13t-13 37v585h-31q-54 0 -80 -25t-26 -77v-19q0 -9 -4 -18t-12.5 -14.5t-22.5 -5.5q-13 0 -21.5 6t-13 15t-4.5 19v21q0 82 48 125t144 43h310q73 0 124.5 -22t78.5 -63t27 -99q0 -65 -38.5 -109t-103.5 -59v15q74 -9 116.5 -54.5t42.5 -118.5
q0 -94 -61.5 -144.5t-173.5 -50.5h-249zM305 73h199q78 0 116 30.5t38 93.5t-38 93t-116 30h-199v-247zM305 394h183q76 0 114.5 30.5t38.5 88.5t-38.5 88.5t-114.5 30.5h-183v-238z" />
    <glyph glyph-name="uni018A" unicode="&#x18a;" horiz-adv-x="877" 
d="M265 0q-24 0 -37 13t-13 37v585h-31q-54 0 -80 -25t-26 -77v-19q0 -9 -4 -18t-12.5 -14.5t-22.5 -5.5q-13 0 -21.5 6t-13 15t-4.5 19v21q0 82 47 125t138 43h273q173 0 266.5 -90.5t93.5 -261.5q0 -85 -24 -151t-70 -110.5t-112.5 -68t-153.5 -23.5h-193zM307 79h145
q68 0 118 17t83.5 51t50 85.5t16.5 120.5q0 137 -67 205t-201 68h-145v-547z" />
    <glyph glyph-name="uni018F" unicode="&#x18f;" horiz-adv-x="771" 
d="M392 -9q-83 0 -145 26t-104 74.5t-63 115.5t-21 149q0 19 8.5 28.5t25.5 9.5h549v-78h-512l25 38q0 -92 26 -155.5t77.5 -96t129.5 -32.5q71 0 122 33t78 96t27 154q0 90 -30.5 152t-88 94.5t-141.5 32.5q-61 0 -109.5 -13.5t-92.5 -43.5q-16 -9 -29 -7.5t-21.5 10
t-11 21t2 24.5t18.5 21q49 35 113.5 52.5t138.5 17.5q107 0 184.5 -43.5t120.5 -124.5t43 -194q0 -83 -22.5 -149.5t-65 -114t-101.5 -72.5t-131 -25z" />
    <glyph glyph-name="florin" unicode="&#x192;" horiz-adv-x="600" 
d="M71 -189q-17 0 -28 10.5t-11 25.5q0 16 10.5 26.5t26.5 10.5h19q44 0 70 23t38 79l94 441l17 -10h-105q-17 0 -28 10t-11 25t11 25t28 10h116l-19 -15l15 70q18 82 66 127t129 45h23q16 0 25.5 -10.5t9.5 -26.5t-9 -27t-23 -11h-19q-47 0 -73.5 -22t-38.5 -79l-14 -66
l-14 15h107q17 0 28 -10t11 -25t-11 -25t-28 -10h-121l19 11l-96 -446q-11 -54 -36 -92.5t-63.5 -58.5t-91.5 -20h-23z" />
    <glyph glyph-name="Ohorn" unicode="&#x1a0;" horiz-adv-x="771" 
d="M386 -9q-100 0 -173 44.5t-113.5 126t-40.5 191.5q0 83 23 149.5t65.5 114t103 72.5t135.5 25q100 0 173 -44t113 -125t40 -191q0 -83 -23 -150t-65.5 -115t-102.5 -73t-135 -25zM386 73q72 0 123 33t78.5 96t27.5 151q0 133 -59.5 206t-169.5 73q-72 0 -123.5 -32.5
t-78.5 -95t-27 -151.5q0 -132 60 -206t169 -74zM490 652l-48 57q25 -1 44 -2.5t37 -1.5q41 0 64 11.5t32.5 34t9.5 53.5q0 18 10.5 27.5t30.5 9.5q19 0 29.5 -10.5t10.5 -28.5q0 -43 -17.5 -77t-50 -53.5t-76.5 -19.5h-76z" />
    <glyph glyph-name="ohorn" unicode="&#x1a1;" horiz-adv-x="560" 
d="M280 -9q-72 0 -125 31t-82 88t-29 134q0 58 16.5 104.5t47.5 79.5t74.5 50.5t97.5 17.5q72 0 125 -31t82 -87.5t29 -133.5q0 -58 -16.5 -105t-47.5 -80t-74.5 -50.5t-97.5 -17.5zM280 63q44 0 76.5 21t50 61t17.5 99q0 88 -39 134t-105 46q-43 0 -75.5 -20.5t-50.5 -60.5
t-18 -99q0 -88 39.5 -134.5t104.5 -46.5zM382 434l-48 31v22q31 0 51.5 7t32.5 19t17 30.5t5 42.5q0 34 41 34q19 0 29.5 -8t10.5 -25q0 -68 -37 -108.5t-102 -44.5z" />
    <glyph glyph-name="Uhorn" unicode="&#x1af;" horiz-adv-x="731" 
d="M366 -9q-70 0 -123.5 18.5t-89.5 55t-54.5 91t-18.5 126.5v383q0 24 12 35.5t34 11.5q23 0 35 -11.5t12 -35.5v-380q0 -107 49 -159.5t144 -52.5t144 52.5t49 159.5v380q0 24 12 35.5t34 11.5t34 -11.5t12 -35.5v-383q0 -95 -32.5 -160t-96 -98t-156.5 -33zM627 652
l-48 32v21q41 0 64 11t32.5 34t9.5 57q0 18 11 26t30 8q20 0 30.5 -7.5t10.5 -26.5q0 -46 -16.5 -79.5t-48 -53t-75.5 -22.5z" />
    <glyph glyph-name="uhorn" unicode="&#x1b0;" horiz-adv-x="565" 
d="M247 -9q-59 0 -98.5 22t-58.5 65t-19 108v262q0 23 11.5 34.5t33.5 11.5t34 -11.5t12 -34.5v-262q0 -62 25 -91.5t79 -29.5q60 0 97.5 40t37.5 106v231q0 23 11.5 33.5t33.5 13.5q29 3 47 14t26 31t8 52q0 34 41 34q19 0 29.5 -8t10.5 -25q0 -62 -30.5 -101t-85.5 -50
v-396q0 -47 -44 -47q-22 0 -33.5 12t-11.5 35v87l13 -17q-20 -58 -64.5 -88.5t-104.5 -30.5z" />
    <glyph glyph-name="uni01B3" unicode="&#x1b3;" horiz-adv-x="614" 
d="M300 -7q-22 0 -34 13t-12 37v322l20 -62l-248 344q-10 14 -9 29.5t12 25.5t30 10q13 0 21 -3t15 -10.5t16 -20.5l203 -280h-22l162 232q20 29 43 47t50.5 27t58.5 9q34 0 52.5 -7.5t18.5 -32.5q0 -10 -4 -17.5t-10.5 -11t-14.5 -2.5q-6 0 -14 0.5t-13 0.5q-23 0 -47 -11
t-43 -39l-204 -290l20 62v-322q0 -50 -47 -50z" />
    <glyph glyph-name="uni01B4" unicode="&#x1b4;" horiz-adv-x="556" 
d="M185 -187q-16 0 -26.5 9t-12 24t5.5 30l68 153v-38l-190 441q-7 17 -5 31t14 22.5t32 8.5q17 0 27.5 -8t18.5 -28l157 -387h-28l133 320q14 34 33.5 57.5t47.5 35.5t67 12q40 0 54.5 -9.5t14.5 -27.5t-7 -28t-20 -10q-5 0 -12.5 1t-17.5 1q-30 0 -50.5 -17t-38.5 -60
l-215 -497q-9 -21 -20 -28.5t-30 -7.5z" />
    <glyph glyph-name="uni01C4" unicode="&#x1c4;" horiz-adv-x="1325" 
d="M135 0q-24 0 -37 13t-13 37v605q0 24 13 37t37 13h193q173 0 266.5 -90.5t93.5 -261.5q0 -85 -24 -151t-70 -110.5t-112.5 -68t-153.5 -23.5h-193zM178 79h144q68 0 118 17t83.5 51t50.5 85.5t17 120.5q0 137 -67.5 205t-201.5 68h-144v-547zM823 0q-18 0 -29.5 7.5
t-16 20t0 28.5t16.5 33l409 570v-33h-387q-21 0 -32 10.5t-11 29.5t11 29t32 10h429q18 0 29.5 -7.5t16 -20t0.5 -28.5t-17 -33l-409 -570v33h402q21 0 32 -10t11 -29t-11 -29.5t-32 -10.5h-444zM1040 756q-17 0 -31 7t-25 23l-85 118q-8 11 -5.5 21t12 16t20.5 4.5
t21 -12.5l93 -112l94 112q10 11 21 12.5t20 -4.5t11.5 -15.5t-5.5 -21.5l-84 -118q-11 -16 -25.5 -23t-31.5 -7z" />
    <glyph glyph-name="uni01C5" unicode="&#x1c5;" horiz-adv-x="1213" 
d="M135 0q-24 0 -37 13t-13 37v605q0 24 13 37t37 13h193q173 0 266.5 -90.5t93.5 -261.5q0 -85 -24 -151t-70 -110.5t-112.5 -68t-153.5 -23.5h-193zM178 79h144q68 0 118 17t83.5 51t50.5 85.5t17 120.5q0 137 -67.5 205t-201.5 68h-144v-547zM835 0q-15 0 -24 7t-12.5 18
t0 24t14.5 26l277 365v-23h-261q-17 0 -26.5 9.5t-9.5 25.5q0 17 9.5 26t26.5 9h305q17 0 27.5 -7t14 -18t0.5 -23.5t-14 -24.5l-281 -369v25h274q36 0 36 -35q0 -16 -9.5 -25.5t-26.5 -9.5h-320zM987 538q-17 0 -30.5 9t-23.5 27l-80 147q-7 12 -3.5 22.5t13 15t20 3
t17.5 -12.5l87 -139l87 139q7 11 17.5 12.5t20 -3t13 -15t-3.5 -22.5l-80 -147q-9 -18 -23 -27t-31 -9z" />
    <glyph glyph-name="uni01C6" unicode="&#x1c6;" horiz-adv-x="1053" 
d="M259 -9q-64 0 -112.5 30.5t-75.5 88t-27 134.5q0 78 26.5 134.5t75 87t113.5 30.5t112 -32.5t63 -86.5h-11v289q0 23 11.5 34.5t33.5 11.5t34 -11.5t12 -34.5v-626q0 -23 -12 -35t-34 -12q-21 0 -33 12t-12 35v91l11 -18q-15 -56 -62.5 -89t-112.5 -33zM280 63
q44 0 76.5 21t50 61t17.5 99q0 88 -39 134t-105 46q-43 0 -75.5 -20.5t-50.5 -60.5t-18 -99q0 -88 39.5 -134.5t104.5 -46.5zM675 0q-15 0 -24 7t-12.5 18t0 24t14.5 26l277 365v-23h-261q-17 0 -26.5 9.5t-9.5 25.5q0 17 9.5 26t26.5 9h305q17 0 27.5 -7t14 -18t0.5 -23.5
t-14 -24.5l-281 -369v25h274q36 0 36 -35q0 -16 -9.5 -25.5t-26.5 -9.5h-320zM827 538q-17 0 -30.5 9t-23.5 27l-80 147q-7 12 -3.5 22.5t13 15t20 3t17.5 -12.5l87 -139l87 139q7 11 17.5 12.5t20 -3t13 -15t-3.5 -22.5l-80 -147q-9 -18 -23 -27t-31 -9z" />
    <glyph glyph-name="uni01C7" unicode="&#x1c7;" horiz-adv-x="918" 
d="M132 0q-22 0 -34.5 13t-12.5 35v614q0 23 12 35t34 12q23 0 35 -12t12 -35v-582h318q21 0 31.5 -10t10.5 -29q0 -20 -10.5 -30.5t-31.5 -10.5h-364zM620 -6q-21 -1 -33 11t-12 30q0 14 8.5 24.5t26.5 11.5l31 3q49 4 75 34t26 82v475q0 23 12 35t34 12t34 -12t12 -35
v-475q0 -59 -20.5 -100.5t-60.5 -65t-100 -28.5z" />
    <glyph glyph-name="uni01C8" unicode="&#x1c8;" horiz-adv-x="789" 
d="M132 0q-22 0 -34.5 13t-12.5 35v614q0 23 12 35t34 12q23 0 35 -12t12 -35v-582h318q21 0 31.5 -10t10.5 -29q0 -20 -10.5 -30.5t-31.5 -10.5h-364zM536 -190q-16 -1 -27 5t-15 16.5t-2 21t9.5 18t20.5 8.5q53 3 78 28.5t25 79.5v461q0 23 12 34.5t34 11.5q21 0 33 -11.5
t12 -34.5v-454q0 -62 -20.5 -101.5t-60.5 -59.5t-99 -23zM670 600q-27 0 -42.5 14.5t-15.5 38.5q0 26 15.5 39.5t42.5 13.5q28 0 43 -13.5t15 -39.5q0 -24 -15 -38.5t-43 -14.5z" />
    <glyph glyph-name="uni01C9" unicode="&#x1c9;" horiz-adv-x="542" 
d="M226 -9q-75 0 -114 44.5t-39 128.5v502q0 23 12 34.5t33 11.5q22 0 34 -11.5t12 -34.5v-495q0 -52 21.5 -77.5t61.5 -25.5q9 0 16 0.5t14 1.5q11 1 16 -6t5 -28q0 -19 -8.5 -29.5t-27.5 -13.5q-9 -1 -18 -1.5t-18 -0.5zM289 -190q-16 -1 -27 5t-15 16.5t-2 21t9.5 18
t20.5 8.5q53 3 78 28.5t25 79.5v461q0 23 12 34.5t34 11.5q21 0 33 -11.5t12 -34.5v-454q0 -62 -20.5 -101.5t-60.5 -59.5t-99 -23zM423 600q-27 0 -42.5 14.5t-15.5 38.5q0 26 15.5 39.5t42.5 13.5q28 0 43 -13.5t15 -39.5q0 -24 -15 -38.5t-43 -14.5z" />
    <glyph glyph-name="uni01CA" unicode="&#x1ca;" horiz-adv-x="1072" 
d="M128 -7q-20 0 -31.5 12t-11.5 33v627q0 23 11 35t29 12q17 0 26 -6t20 -21l424 -562h-25v544q0 22 11.5 33.5t32.5 11.5t32 -11.5t11 -33.5v-629q0 -21 -10.5 -33t-27.5 -12q-16 0 -26.5 6.5t-21.5 21.5l-423 562h23v-545q0 -21 -11 -33t-32 -12zM773 -6q-21 -1 -33 11
t-12 30q0 14 8.5 24.5t26.5 11.5l31 3q49 4 75 34t26 82v475q0 23 12 35t34 12t34 -12t12 -35v-475q0 -59 -20.5 -100.5t-60.5 -65t-100 -28.5z" />
    <glyph glyph-name="uni01CB" unicode="&#x1cb;" horiz-adv-x="982" 
d="M128 -7q-20 0 -31.5 12t-11.5 33v627q0 23 11 35t29 12q17 0 26 -6t20 -21l424 -562h-25v544q0 22 11.5 33.5t32.5 11.5t32 -11.5t11 -33.5v-629q0 -21 -10.5 -33t-27.5 -12q-16 0 -26.5 6.5t-21.5 21.5l-423 562h23v-545q0 -21 -11 -33t-32 -12zM729 -190q-16 -1 -27 5
t-15 16.5t-2 21t9.5 18t20.5 8.5q53 3 78 28.5t25 79.5v461q0 23 12 34.5t34 11.5q21 0 33 -11.5t12 -34.5v-454q0 -62 -20.5 -101.5t-60.5 -59.5t-99 -23zM863 600q-27 0 -42.5 14.5t-15.5 38.5q0 26 15.5 39.5t42.5 13.5q28 0 43 -13.5t15 -39.5q0 -24 -15 -38.5
t-43 -14.5z" />
    <glyph glyph-name="uni01CC" unicode="&#x1cc;" horiz-adv-x="813" 
d="M118 -7q-21 0 -33 12t-12 35v408q0 23 12 34.5t33 11.5t32.5 -11.5t11.5 -34.5v-82l-11 15q21 57 68.5 86t108.5 29q59 0 97 -21t57 -64t19 -109v-262q0 -23 -11.5 -35t-33.5 -12t-34 12t-12 35v257q0 65 -25 95t-80 30q-64 0 -102.5 -39.5t-38.5 -106.5v-236
q0 -47 -46 -47zM560 -190q-16 -1 -27 5t-15 16.5t-2 21t9.5 18t20.5 8.5q53 3 78 28.5t25 79.5v461q0 23 12 34.5t34 11.5q21 0 33 -11.5t12 -34.5v-454q0 -62 -20.5 -101.5t-60.5 -59.5t-99 -23zM694 600q-27 0 -42.5 14.5t-15.5 38.5q0 26 15.5 39.5t42.5 13.5
q28 0 43 -13.5t15 -39.5q0 -24 -15 -38.5t-43 -14.5z" />
    <glyph glyph-name="uni01CD" unicode="&#x1cd;" horiz-adv-x="733" 
d="M75 -7q-18 0 -28.5 8t-12.5 22t6 31l273 618q9 21 23 30.5t31 9.5t30.5 -9.5t23.5 -30.5l273 -618q8 -17 6.5 -31.5t-11.5 -22t-28 -7.5q-20 0 -32 10.5t-21 30.5l-71 166l43 -24h-428l43 24l-71 -166q-9 -22 -20 -31.5t-29 -9.5zM365 600l-156 -369l-24 21h362l-23 -21
l-157 369h-2zM367 756q-17 0 -31 7t-25 23l-85 118q-8 11 -5.5 21t12 16t20.5 4.5t21 -12.5l93 -112l94 112q10 11 21 12.5t20 -4.5t11.5 -15.5t-5.5 -21.5l-84 -118q-11 -16 -25.5 -23t-31.5 -7z" />
    <glyph glyph-name="uni01CE" unicode="&#x1ce;" horiz-adv-x="533" 
d="M228 -9q-50 0 -90.5 20t-63 54t-22.5 76q0 54 27 85t91 44.5t172 13.5h47v-58h-45q-77 0 -121.5 -7t-62.5 -24.5t-18 -48.5q0 -39 27.5 -64t75.5 -25q38 0 67 18.5t46 50t17 72.5v115q0 59 -24 85.5t-81 26.5q-33 0 -68 -9t-73 -28q-15 -7 -26 -4.5t-17.5 12t-7 21
t5 22.5t19.5 16q44 22 87.5 31.5t81.5 9.5q65 0 107 -20.5t63 -63t21 -108.5v-264q0 -23 -11 -35t-32 -12q-20 0 -31.5 12t-11.5 35v71h9q-8 -37 -30 -64t-54.5 -41.5t-73.5 -14.5zM273 538q-17 0 -30.5 9t-23.5 27l-80 147q-7 12 -3.5 22.5t13 15t20 3t17.5 -12.5l87 -139
l87 139q7 11 17.5 12.5t20 -3t13 -15t-3.5 -22.5l-80 -147q-9 -18 -23 -27t-31 -9z" />
    <glyph glyph-name="uni01D4" unicode="&#x1d4;" horiz-adv-x="565" 
d="M247 -9q-59 0 -98.5 22t-58.5 65t-19 108v262q0 23 11.5 34.5t33.5 11.5t34 -11.5t12 -34.5v-262q0 -62 25 -91.5t79 -29.5q60 0 97.5 40t37.5 106v237q0 23 11.5 34.5t33.5 11.5t34 -11.5t12 -34.5v-408q0 -47 -44 -47q-22 0 -33.5 12t-11.5 35v87l13 -17
q-20 -58 -64.5 -88.5t-104.5 -30.5zM282 539q-17 0 -30.5 9t-23.5 27l-80 147q-7 12 -3.5 22.5t13 15t20 3t17.5 -12.5l87 -139l87 139q7 11 17.5 12.5t20 -3t13 -15t-3.5 -22.5l-80 -147q-9 -18 -23 -27t-31 -9z" />
    <glyph glyph-name="uni01E5" unicode="&#x1e5;" horiz-adv-x="590" 
d="M292 -189q-54 0 -104 11.5t-92 37.5q-13 8 -17.5 18.5t-2 22t10 19.5t18 10.5t21.5 -4.5q39 -23 81.5 -33.5t78.5 -9.5q48 0 79.5 17.5t46.5 49.5l10 -9h-95q-14 0 -23 8.5t-9 21.5t9 21.5t23 8.5h105l-8 -20q2 11 3 22.5t1 22.5v132h9q-15 -56 -62 -88t-112 -32
t-114.5 29.5t-77 81.5t-27.5 118q0 50 15.5 92t44.5 73t69.5 47.5t89.5 16.5q65 0 112 -32t62 -87h-11v72q0 22 12 33.5t34 11.5q21 0 33 -11.5t12 -33.5v-411q0 -17 -1.5 -32.5t-3.5 -28.5l-6 24h50q14 0 22.5 -8.5t8.5 -21.5t-8.5 -21.5t-22.5 -8.5h-72l22 10
q-20 -70 -73.5 -105t-140.5 -35zM282 110q44 0 76.5 19.5t50 55t17.5 82.5q0 72 -39 114.5t-105 42.5q-44 0 -77 -19t-51 -54t-18 -84q0 -72 40.5 -114.5t105.5 -42.5z" />
    <glyph glyph-name="Gcaron" unicode="&#x1e6;" horiz-adv-x="729" 
d="M410 -9q-113 0 -191.5 43.5t-119 124.5t-40.5 193q0 84 23 150.5t67.5 114t108 72.5t143.5 25q62 0 120 -16.5t106 -53.5q12 -9 15.5 -21t0.5 -24t-11.5 -21t-21 -10.5t-26.5 7.5q-41 30 -85.5 43t-97.5 13q-79 0 -134 -32.5t-82.5 -95t-27.5 -151.5q0 -137 64.5 -208
t191.5 -71q47 0 91.5 9t85.5 25l-20 -50v241h-136q-18 0 -28.5 10t-10.5 27t10.5 26t28.5 9h177q18 0 28.5 -10t10.5 -29v-257q0 -16 -6 -27.5t-20 -16.5q-42 -17 -100 -28t-114 -11zM394 756q-17 0 -31 7t-25 23l-85 118q-8 11 -5.5 21t12 16t20.5 4.5t21 -12.5l93 -112
l94 112q10 11 21 12.5t20 -4.5t11.5 -15.5t-5.5 -21.5l-84 -118q-11 -16 -25.5 -23t-31.5 -7z" />
    <glyph glyph-name="gcaron" unicode="&#x1e7;" horiz-adv-x="590" 
d="M292 -189q-54 0 -104.5 12t-91.5 37q-13 8 -17.5 18.5t-2 21.5t10 19.5t18 11t21.5 -4.5q44 -25 84 -34t76 -9q71 0 106.5 36.5t35.5 106.5v108h9q-14 -56 -62.5 -89t-112.5 -33q-66 0 -115 30.5t-76 85t-27 126.5q0 55 15.5 99.5t44 76t68.5 49t90 17.5q65 0 113 -33
t62 -89l-11 -14v88q0 23 12 34.5t34 11.5q21 0 33 -11.5t12 -34.5v-410q0 -113 -57.5 -170t-167.5 -57zM282 84q45 0 77.5 20.5t50 59t17.5 90.5q0 79 -39 124.5t-106 45.5q-45 0 -77.5 -20.5t-50.5 -58.5t-18 -91q0 -78 39.5 -124t106.5 -46zM297 538q-17 0 -30.5 9
t-23.5 27l-80 147q-7 12 -3.5 22.5t13 15t20 3t17.5 -12.5l87 -139l87 139q7 11 17.5 12.5t20 -3t13 -15t-3.5 -22.5l-80 -147q-9 -18 -23 -27t-31 -9z" />
    <glyph glyph-name="uni01E9" unicode="&#x1e9;" horiz-adv-x="508" 
d="M118 -7q-21 0 -33 12t-12 35v626q0 23 12 34.5t33 11.5q22 0 34 -11.5t12 -34.5v-394h2l196 191q15 15 27 23t31 8t29 -9.5t10 -24t-14 -28.5l-208 -202v45l227 -219q14 -14 13.5 -29t-11 -24.5t-27.5 -9.5q-20 0 -32.5 8t-28.5 25l-212 200h-2v-186q0 -47 -46 -47z
M287 756q-17 0 -31 7t-25 23l-85 118q-8 11 -5.5 21t12 16t20.5 4.5t21 -12.5l93 -112l94 112q10 11 21 12.5t20 -4.5t11.5 -15.5t-5.5 -21.5l-84 -118q-11 -16 -25.5 -23t-31.5 -7z" />
    <glyph glyph-name="uni01EA" unicode="&#x1ea;" horiz-adv-x="771" 
d="M386 -9q-100 0 -173 44.5t-113.5 126t-40.5 191.5q0 83 23 149.5t65.5 114t103 72.5t135.5 25q100 0 173 -44t113 -125t40 -191q0 -83 -23 -150t-65.5 -115t-102.5 -73t-135 -25zM386 73q72 0 123 33t78.5 96t27.5 151q0 133 -59.5 206t-169.5 73q-72 0 -123.5 -32.5
t-78.5 -95t-27 -151.5q0 -132 60 -206t169 -74zM424 -193q-50 0 -79.5 27t-29.5 72q0 40 26.5 75.5t71.5 55.5l30 -37q-16 -7 -31 -19t-24.5 -28.5t-9.5 -36.5q0 -27 16.5 -41t41.5 -14q8 0 16.5 1.5t16.5 4.5q15 4 23 -1.5t10.5 -15.5t-2.5 -19.5t-17 -14.5
q-15 -6 -30 -7.5t-29 -1.5z" />
    <glyph glyph-name="uni01EB" unicode="&#x1eb;" horiz-adv-x="560" 
d="M280 -9q-72 0 -125 31t-82 88t-29 134q0 58 16.5 104.5t47.5 79.5t74.5 50.5t97.5 17.5q72 0 125 -31t82 -87.5t29 -133.5q0 -58 -16.5 -105t-47.5 -80t-74.5 -50.5t-97.5 -17.5zM280 63q44 0 76.5 21t50 61t17.5 99q0 88 -39 134t-105 46q-43 0 -75.5 -20.5t-50.5 -60.5
t-18 -99q0 -88 39.5 -134.5t104.5 -46.5zM320 -193q-50 0 -79.5 27t-29.5 72q0 40 26.5 75.5t71.5 55.5l30 -37q-16 -7 -31 -19t-24.5 -28.5t-9.5 -36.5q0 -27 16.5 -41t41.5 -14q8 0 16.5 1.5t16.5 4.5q15 4 23 -1.5t10.5 -15.5t-2.5 -19.5t-17 -14.5q-15 -6 -30 -7.5
t-29 -1.5z" />
    <glyph glyph-name="uni01EF" unicode="&#x1ef;" horiz-adv-x="500" 
d="M229 -189q-58 0 -107.5 12t-87.5 36q-14 8 -18.5 19t-2.5 22.5t9.5 19.5t18.5 10t24 -7q32 -20 70.5 -30t84.5 -10q79 0 118 35.5t39 102.5q0 61 -38.5 93.5t-111.5 32.5h-80q-15 0 -21.5 8.5t-4 21t12.5 24.5l218 235v-22h-286q-18 0 -28.5 9.5t-10.5 27.5q0 36 39 36
h338q16 0 25.5 -7t12.5 -18.5t-0.5 -24.5t-14.5 -23l-209 -227l-24 26h61q67 0 114.5 -22.5t73 -64t25.5 -100.5q0 -67 -28.5 -115t-82 -74t-128.5 -26zM236 538q-17 0 -30.5 9t-23.5 27l-80 147q-7 12 -3.5 22.5t13 15t20 3t17.5 -12.5l87 -139l87 139q7 11 17.5 12.5
t20 -3t13 -15t-3.5 -22.5l-80 -147q-9 -18 -23 -27t-31 -9z" />
    <glyph glyph-name="Aringacute" unicode="&#x1fa;" horiz-adv-x="733" 
d="M75 -7q-18 0 -28.5 8t-12.5 22t6 31l273 618q9 21 23 30.5t31 9.5t30.5 -9.5t23.5 -30.5l273 -618q8 -17 6.5 -31.5t-11.5 -22t-28 -7.5q-20 0 -32 10.5t-21 30.5l-71 166l43 -24h-428l43 24l-71 -166q-9 -22 -20 -31.5t-29 -9.5zM365 600l-156 -369l-24 21h362l-23 -21
l-157 369h-2zM367 757q-33 0 -59.5 15.5t-42 41.5t-15.5 58t15.5 57.5t42 41t59.5 15.5q19 0 35.5 -5t30.5 -14l72 67q11 10 22.5 9t19 -8.5t8 -18.5t-10.5 -21l-76 -65q16 -26 16 -58t-15.5 -58t-42 -41.5t-59.5 -15.5zM367 801q31 0 50.5 20.5t19.5 50.5t-19.5 50
t-50.5 20q-30 0 -50 -20t-20 -50t20 -50.5t50 -20.5z" />
    <glyph glyph-name="aringacute" unicode="&#x1fb;" horiz-adv-x="533" 
d="M228 -9q-50 0 -90.5 20t-63 54t-22.5 76q0 54 27 85t91 44.5t172 13.5h47v-58h-45q-77 0 -121.5 -7t-62.5 -24.5t-18 -48.5q0 -39 27.5 -64t75.5 -25q38 0 67 18.5t46 50t17 72.5v115q0 59 -24 85.5t-81 26.5q-33 0 -68 -9t-73 -28q-15 -7 -26 -4.5t-17.5 12t-7 21
t5 22.5t19.5 16q44 22 87.5 31.5t81.5 9.5q65 0 107 -20.5t63 -63t21 -108.5v-264q0 -23 -11 -35t-32 -12q-20 0 -31.5 12t-11.5 35v71h9q-8 -37 -30 -64t-54.5 -41.5t-73.5 -14.5zM273 543q-33 0 -59.5 15.5t-42 41.5t-15.5 58t15.5 58t42 41t59.5 15q19 0 35.5 -5
t30.5 -14l72 67q11 11 22.5 9.5t19 -9.5t8 -18.5t-9.5 -19.5l-77 -65q16 -27 16 -59t-15.5 -58t-42 -41.5t-59.5 -15.5zM273 588q31 0 50.5 20t19.5 50t-19.5 50t-50.5 20q-30 0 -50 -20t-20 -50t20 -50t50 -20z" />
    <glyph glyph-name="AEacute" unicode="&#x1fc;" horiz-adv-x="984" 
d="M45 -7q-21 0 -31.5 8.5t-10.5 22t8 28.5l383 626q8 14 20 20.5t28 6.5h457q20 0 30.5 -9.5t10.5 -27.5q0 -19 -10.5 -29t-30.5 -10h-414l21 30l61 -288l-32 25h344q20 0 30 -10t10 -28q0 -19 -10 -28.5t-30 -9.5h-328l22 24l64 -297l-36 29h298q20 0 30.5 -9.5
t10.5 -28.5t-10.5 -28.5t-30.5 -9.5h-300q-36 0 -44 36l-36 167l33 -27h-390l37 25l-106 -178q-9 -15 -20 -22.5t-28 -7.5zM433 597l-218 -367l-9 22h325l-17 -24l-79 369h-2zM526 770q-9 -10 -20.5 -11t-20.5 5.5t-11.5 16.5t4.5 21l87 127q9 13 21 16t24 -1t19.5 -12.5
t8 -20t-9.5 -23.5z" />
    <glyph glyph-name="aeacute" unicode="&#x1fd;" horiz-adv-x="862" 
d="M235 -9q-54 0 -95.5 20t-64.5 54t-23 76q0 54 27.5 85t91.5 44t173 13h45v-57h-45q-77 0 -121.5 -7t-62.5 -24.5t-18 -48.5q0 -39 27.5 -64t76.5 -25q40 0 69 19t45.5 52t16.5 75v108q0 60 -25 87t-80 27q-34 0 -69 -9t-73 -28q-15 -7 -26.5 -4.5t-17.5 12t-6.5 21
t5 22.5t19.5 16q44 22 87.5 31.5t81.5 9.5q72 0 115 -29t59 -88h-25q25 57 76.5 87t113.5 31q48 0 87 -16.5t66.5 -47.5t42 -75.5t14.5 -100.5v-3q0 -14 -9.5 -21t-27.5 -7h-328v57h303l-15 -13q0 51 -15 86.5t-44.5 54.5t-73.5 19q-45 0 -78 -21t-50.5 -60.5t-17.5 -94.5
v-7q0 -90 40.5 -137t121.5 -47q29 0 63.5 8.5t65.5 28.5q15 9 27.5 8.5t20.5 -8t10 -18t-3 -22.5t-19 -21q-34 -23 -78.5 -35.5t-86.5 -12.5q-85 0 -143.5 38t-81.5 113h21q-14 -70 -64 -110.5t-125 -40.5zM452 557q-8 -11 -18.5 -13t-20.5 3.5t-14 15.5t2 23l82 159
q7 16 19 20.5t24.5 1.5t21.5 -11.5t10.5 -21t-6.5 -25.5z" />
    <glyph glyph-name="Oslashacute" unicode="&#x1fe;" horiz-adv-x="771" 
d="M386 -9q-100 0 -173 44.5t-113.5 126t-40.5 191.5q0 83 23 149.5t65.5 114t103 72.5t135.5 25q100 0 173 -44t113 -125t40 -191q0 -83 -23 -150t-65.5 -115t-102.5 -73t-135 -25zM386 73q72 0 123 33t78.5 96t27.5 151q0 133 -59.5 206t-169.5 73q-72 0 -123.5 -32.5
t-78.5 -95t-27 -151.5q0 -132 60 -206t169 -74zM207 -27q-8 -12 -18.5 -16t-21.5 -1t-19 11t-9.5 20t6.5 25l42 71l26 45l288 494l21 37l43 73q7 12 17.5 16t22 1t19.5 -11t9.5 -19.5t-6.5 -25.5l-42 -71l-27 -45l-288 -493l-21 -37zM424 770q-9 -10 -20.5 -11t-20.5 5.5
t-11.5 16.5t4.5 21l87 127q9 13 21 16t24 -1t19.5 -12.5t8 -20t-9.5 -23.5z" />
    <glyph glyph-name="oslashacute" unicode="&#x1ff;" horiz-adv-x="560" 
d="M280 -9q-72 0 -125 31t-82 88t-29 134q0 58 16.5 104.5t47.5 79.5t74.5 50.5t97.5 17.5q72 0 125 -31t82 -87.5t29 -133.5q0 -58 -16.5 -105t-47.5 -80t-74.5 -50.5t-97.5 -17.5zM280 63q44 0 76.5 21t50 61t17.5 99q0 88 -39 134t-105 46q-43 0 -75.5 -20.5t-50.5 -60.5
t-18 -99q0 -88 39.5 -134.5t104.5 -46.5zM156 -31q-8 -13 -20 -15t-22 4t-14 18t5 26l300 516q8 14 20 15.5t22 -4.5t14 -18t-4 -26zM316 557q-8 -11 -18.5 -13t-20.5 3.5t-14 15.5t2 23l82 159q7 16 19 20.5t24.5 1.5t21.5 -11.5t10.5 -21t-6.5 -25.5z" />
    <glyph glyph-name="uni0200" unicode="&#x200;" horiz-adv-x="733" 
d="M75 -7q-18 0 -28.5 8t-12.5 22t6 31l273 618q9 21 23 30.5t31 9.5t30.5 -9.5t23.5 -30.5l273 -618q8 -17 6.5 -31.5t-11.5 -22t-28 -7.5q-20 0 -32 10.5t-21 30.5l-71 166l43 -24h-428l43 24l-71 -166q-9 -22 -20 -31.5t-29 -9.5zM365 600l-156 -369l-24 21h362l-23 -21
l-157 369h-2zM402 770l-84 122q-9 13 -7.5 24.5t9 19t19 10t23 -2t17.5 -18.5l67 -133q5 -10 2 -19t-11 -13t-17.5 -2t-17.5 12zM273 768l-89 124q-9 13 -8 24.5t8.5 19t18.5 10t22 -1.5t19 -18l69 -132q5 -11 2.5 -20t-10 -13.5t-16.5 -3t-16 10.5z" />
    <glyph glyph-name="uni0201" unicode="&#x201;" horiz-adv-x="533" 
d="M228 -9q-50 0 -90.5 20t-63 54t-22.5 76q0 54 27 85t91 44.5t172 13.5h47v-58h-45q-77 0 -121.5 -7t-62.5 -24.5t-18 -48.5q0 -39 27.5 -64t75.5 -25q38 0 67 18.5t46 50t17 72.5v115q0 59 -24 85.5t-81 26.5q-33 0 -68 -9t-73 -28q-15 -7 -26 -4.5t-17.5 12t-7 21
t5 22.5t19.5 16q44 22 87.5 31.5t81.5 9.5q65 0 107 -20.5t63 -63t21 -108.5v-264q0 -23 -11 -35t-32 -12q-20 0 -31.5 12t-11.5 35v71h9q-8 -37 -30 -64t-54.5 -41.5t-73.5 -14.5zM312 559l-67 160q-6 15 -2 26t14 16.5t22.5 5.5t23 -7.5t14.5 -23.5l43 -162
q3 -12 -2.5 -19.5t-14.5 -10t-18 1t-13 13.5zM180 559l-67 160q-6 15 -2 26t14 16.5t22.5 5.5t22.5 -7.5t14 -23.5l44 -162q3 -12 -2.5 -19.5t-14.5 -10t-18 1t-13 13.5z" />
    <glyph glyph-name="uni0202" unicode="&#x202;" horiz-adv-x="733" 
d="M75 -7q-18 0 -28.5 8t-12.5 22t6 31l273 618q9 21 23 30.5t31 9.5t30.5 -9.5t23.5 -30.5l273 -618q8 -17 6.5 -31.5t-11.5 -22t-28 -7.5q-20 0 -32 10.5t-21 30.5l-71 166l43 -24h-428l43 24l-71 -166q-9 -22 -20 -31.5t-29 -9.5zM365 600l-156 -369l-24 21h362l-23 -21
l-157 369h-2zM222 759q-11 1 -19 11t-4 25q15 72 61.5 106.5t106.5 34.5t107 -34.5t61 -106.5q4 -15 -4 -25t-19 -11q-9 0 -16 3t-11 8.5t-6 12.5q-10 52 -42 73t-70 21q-37 0 -69 -21t-43 -73q-2 -7 -6 -12.5t-10.5 -8.5t-16.5 -3z" />
    <glyph glyph-name="uni0203" unicode="&#x203;" horiz-adv-x="533" 
d="M228 -9q-50 0 -90.5 20t-63 54t-22.5 76q0 54 27 85t91 44.5t172 13.5h47v-58h-45q-77 0 -121.5 -7t-62.5 -24.5t-18 -48.5q0 -39 27.5 -64t75.5 -25q38 0 67 18.5t46 50t17 72.5v115q0 59 -24 85.5t-81 26.5q-33 0 -68 -9t-73 -28q-15 -7 -26 -4.5t-17.5 12t-7 21
t5 22.5t19.5 16q44 22 87.5 31.5t81.5 9.5q65 0 107 -20.5t63 -63t21 -108.5v-264q0 -23 -11 -35t-32 -12q-20 0 -31.5 12t-11.5 35v71h9q-8 -37 -30 -64t-54.5 -41.5t-73.5 -14.5zM144 547q-12 1 -20 10.5t-6 25.5q6 49 26 85.5t52.5 57t76.5 20.5t76.5 -20.5t53 -57
t25.5 -85.5q2 -16 -5.5 -25.5t-20.5 -10.5q-12 0 -20.5 7t-10.5 22q-6 55 -32.5 82.5t-65.5 27.5t-65 -27.5t-33 -82.5q-2 -15 -10 -22t-21 -7z" />
    <glyph glyph-name="uni0204" unicode="&#x204;" horiz-adv-x="586" 
d="M135 0q-24 0 -37 13t-13 37v605q0 24 13 37t37 13h368q19 0 29.5 -9.5t10.5 -27.5q0 -19 -10.5 -29t-29.5 -10h-328v-233h307q19 0 29 -10t10 -28q0 -19 -10 -28.5t-29 -9.5h-307v-244h328q19 0 29.5 -9.5t10.5 -28.5t-10.5 -28.5t-29.5 -9.5h-368zM360 770l-84 122
q-9 13 -7.5 24.5t9 19t19 10t23 -2t17.5 -18.5l67 -133q5 -10 2 -19t-11 -13t-17.5 -2t-17.5 12zM231 768l-89 124q-9 13 -8 24.5t8.5 19t18.5 10t22 -1.5t19 -18l69 -132q5 -11 2.5 -20t-10 -13.5t-16.5 -3t-16 10.5z" />
    <glyph glyph-name="uni0205" unicode="&#x205;" horiz-adv-x="534" 
d="M298 -9q-79 0 -135.5 30.5t-87.5 87t-31 133.5q0 76 30.5 133t84 89t122.5 32q49 0 88.5 -16.5t67.5 -47.5t42.5 -75.5t14.5 -100.5q0 -16 -9.5 -24.5t-27.5 -8.5h-342v58h319l-17 -14q0 52 -15.5 88.5t-45 55.5t-73.5 19q-48 0 -82 -22.5t-52 -63t-18 -93.5v-6
q0 -90 43 -136t124 -46q32 0 65.5 8t64.5 29q15 9 27.5 8.5t20.5 -8t10 -18t-3 -22.5t-19 -21q-33 -23 -78.5 -35.5t-87.5 -12.5zM320 559l-67 160q-6 15 -2 26t14 16.5t22.5 5.5t23 -7.5t14.5 -23.5l43 -162q3 -12 -2.5 -19.5t-14.5 -10t-18 1t-13 13.5zM188 559l-67 160
q-6 15 -2 26t14 16.5t22.5 5.5t22.5 -7.5t14 -23.5l44 -162q3 -12 -2.5 -19.5t-14.5 -10t-18 1t-13 13.5z" />
    <glyph glyph-name="uni0206" unicode="&#x206;" horiz-adv-x="586" 
d="M135 0q-24 0 -37 13t-13 37v605q0 24 13 37t37 13h368q19 0 29.5 -9.5t10.5 -27.5q0 -19 -10.5 -29t-29.5 -10h-328v-233h307q19 0 29 -10t10 -28q0 -19 -10 -28.5t-29 -9.5h-307v-244h328q19 0 29.5 -9.5t10.5 -28.5t-10.5 -28.5t-29.5 -9.5h-368zM180 759q-11 1 -19 11
t-4 25q15 72 61.5 106.5t106.5 34.5t107 -34.5t61 -106.5q4 -15 -4 -25t-19 -11q-9 0 -16 3t-11 8.5t-6 12.5q-10 52 -42 73t-70 21q-37 0 -69 -21t-43 -73q-2 -7 -6 -12.5t-10.5 -8.5t-16.5 -3z" />
    <glyph glyph-name="uni0207" unicode="&#x207;" horiz-adv-x="534" 
d="M298 -9q-79 0 -135.5 30.5t-87.5 87t-31 133.5q0 76 30.5 133t84 89t122.5 32q49 0 88.5 -16.5t67.5 -47.5t42.5 -75.5t14.5 -100.5q0 -16 -9.5 -24.5t-27.5 -8.5h-342v58h319l-17 -14q0 52 -15.5 88.5t-45 55.5t-73.5 19q-48 0 -82 -22.5t-52 -63t-18 -93.5v-6
q0 -90 43 -136t124 -46q32 0 65.5 8t64.5 29q15 9 27.5 8.5t20.5 -8t10 -18t-3 -22.5t-19 -21q-33 -23 -78.5 -35.5t-87.5 -12.5zM152 547q-12 1 -20 10.5t-6 25.5q6 49 26 85.5t52.5 57t76.5 20.5t76.5 -20.5t53 -57t25.5 -85.5q2 -16 -5.5 -25.5t-20.5 -10.5
q-12 0 -20.5 7t-10.5 22q-6 55 -32.5 82.5t-65.5 27.5t-65 -27.5t-33 -82.5q-2 -15 -10 -22t-21 -7z" />
    <glyph glyph-name="uni0208" unicode="&#x208;" horiz-adv-x="262" 
d="M131 -7q-22 0 -34 12.5t-12 35.5v623q0 24 12 36t34 12q23 0 35 -12t12 -36v-623q0 -23 -11.5 -35.5t-35.5 -12.5zM166 770l-84 122q-9 13 -7.5 24.5t9 19t19 10t23 -2t17.5 -18.5l67 -133q5 -10 2 -19t-11 -13t-17.5 -2t-17.5 12zM37 768l-89 124q-9 13 -8 24.5t8.5 19
t18.5 10t22 -1.5t19 -18l69 -132q5 -11 2.5 -20t-10 -13.5t-16.5 -3t-16 10.5z" />
    <glyph glyph-name="uni0209" unicode="&#x209;" horiz-adv-x="237" 
d="M118 -5q-21 0 -33 13t-12 36v399q0 24 12 36.5t33 12.5q22 0 34 -12.5t12 -36.5v-399q0 -23 -11.5 -36t-34.5 -13zM157 559l-67 160q-6 15 -2 26t14 16.5t22.5 5.5t23 -7.5t14.5 -23.5l43 -162q3 -12 -2.5 -19.5t-14.5 -10t-18 1t-13 13.5zM25 559l-67 160q-6 15 -2 26
t14 16.5t22.5 5.5t22.5 -7.5t14 -23.5l44 -162q3 -12 -2.5 -19.5t-14.5 -10t-18 1t-13 13.5z" />
    <glyph glyph-name="uni020A" unicode="&#x20a;" horiz-adv-x="262" 
d="M131 -7q-22 0 -34 12.5t-12 35.5v623q0 24 12 36t34 12q23 0 35 -12t12 -36v-623q0 -23 -11.5 -35.5t-35.5 -12.5zM-14 759q-11 1 -19 11t-4 25q15 72 61.5 106.5t106.5 34.5t107 -34.5t61 -106.5q4 -15 -4 -25t-19 -11q-9 0 -16 3t-11 8.5t-6 12.5q-10 52 -42 73t-70 21
q-37 0 -69 -21t-43 -73q-2 -7 -6 -12.5t-10.5 -8.5t-16.5 -3z" />
    <glyph glyph-name="uni020B" unicode="&#x20b;" horiz-adv-x="237" 
d="M118 -5q-21 0 -33 13t-12 36v399q0 24 12 36.5t33 12.5q22 0 34 -12.5t12 -36.5v-399q0 -23 -11.5 -36t-34.5 -13zM-11 547q-12 1 -20 10.5t-6 25.5q6 49 26 85.5t52.5 57t76.5 20.5t76.5 -20.5t53 -57t25.5 -85.5q2 -16 -5.5 -25.5t-20.5 -10.5q-12 0 -20.5 7t-10.5 22
q-6 55 -32.5 82.5t-65.5 27.5t-65 -27.5t-33 -82.5q-2 -15 -10 -22t-21 -7z" />
    <glyph glyph-name="uni020C" unicode="&#x20c;" horiz-adv-x="771" 
d="M386 -9q-100 0 -173 44.5t-113.5 126t-40.5 191.5q0 83 23 149.5t65.5 114t103 72.5t135.5 25q100 0 173 -44t113 -125t40 -191q0 -83 -23 -150t-65.5 -115t-102.5 -73t-135 -25zM386 73q72 0 123 33t78.5 96t27.5 151q0 133 -59.5 206t-169.5 73q-72 0 -123.5 -32.5
t-78.5 -95t-27 -151.5q0 -132 60 -206t169 -74zM420 770l-84 122q-9 13 -7.5 24.5t9 19t19 10t23 -2t17.5 -18.5l67 -133q5 -10 2 -19t-11 -13t-17.5 -2t-17.5 12zM291 768l-89 124q-9 13 -8 24.5t8.5 19t18.5 10t22 -1.5t19 -18l69 -132q5 -11 2.5 -20t-10 -13.5t-16.5 -3
t-16 10.5z" />
    <glyph glyph-name="uni020D" unicode="&#x20d;" horiz-adv-x="560" 
d="M280 -9q-72 0 -125 31t-82 88t-29 134q0 58 16.5 104.5t47.5 79.5t74.5 50.5t97.5 17.5q72 0 125 -31t82 -87.5t29 -133.5q0 -58 -16.5 -105t-47.5 -80t-74.5 -50.5t-97.5 -17.5zM280 63q44 0 76.5 21t50 61t17.5 99q0 88 -39 134t-105 46q-43 0 -75.5 -20.5t-50.5 -60.5
t-18 -99q0 -88 39.5 -134.5t104.5 -46.5zM319 559l-67 160q-6 15 -2 26t14 16.5t22.5 5.5t23 -7.5t14.5 -23.5l43 -162q3 -12 -2.5 -19.5t-14.5 -10t-18 1t-13 13.5zM187 559l-67 160q-6 15 -2 26t14 16.5t22.5 5.5t22.5 -7.5t14 -23.5l44 -162q3 -12 -2.5 -19.5t-14.5 -10
t-18 1t-13 13.5z" />
    <glyph glyph-name="uni020E" unicode="&#x20e;" horiz-adv-x="771" 
d="M386 -9q-100 0 -173 44.5t-113.5 126t-40.5 191.5q0 83 23 149.5t65.5 114t103 72.5t135.5 25q100 0 173 -44t113 -125t40 -191q0 -83 -23 -150t-65.5 -115t-102.5 -73t-135 -25zM386 73q72 0 123 33t78.5 96t27.5 151q0 133 -59.5 206t-169.5 73q-72 0 -123.5 -32.5
t-78.5 -95t-27 -151.5q0 -132 60 -206t169 -74zM240 759q-11 1 -19 11t-4 25q15 72 61.5 106.5t106.5 34.5t107 -34.5t61 -106.5q4 -15 -4 -25t-19 -11q-9 0 -16 3t-11 8.5t-6 12.5q-10 52 -42 73t-70 21q-37 0 -69 -21t-43 -73q-2 -7 -6 -12.5t-10.5 -8.5t-16.5 -3z" />
    <glyph glyph-name="uni020F" unicode="&#x20f;" horiz-adv-x="560" 
d="M280 -9q-72 0 -125 31t-82 88t-29 134q0 58 16.5 104.5t47.5 79.5t74.5 50.5t97.5 17.5q72 0 125 -31t82 -87.5t29 -133.5q0 -58 -16.5 -105t-47.5 -80t-74.5 -50.5t-97.5 -17.5zM280 63q44 0 76.5 21t50 61t17.5 99q0 88 -39 134t-105 46q-43 0 -75.5 -20.5t-50.5 -60.5
t-18 -99q0 -88 39.5 -134.5t104.5 -46.5zM151 547q-12 1 -20 10.5t-6 25.5q6 49 26 85.5t52.5 57t76.5 20.5t76.5 -20.5t53 -57t25.5 -85.5q2 -16 -5.5 -25.5t-20.5 -10.5q-12 0 -20.5 7t-10.5 22q-6 55 -32.5 82.5t-65.5 27.5t-65 -27.5t-33 -82.5q-2 -15 -10 -22t-21 -7z
" />
    <glyph glyph-name="uni0210" unicode="&#x210;" horiz-adv-x="673" 
d="M131 -7q-22 0 -34 12.5t-12 35.5v617q0 23 12.5 35t34.5 12h238q114 0 175.5 -53.5t61.5 -151.5q0 -64 -28 -109.5t-81 -69.5t-128 -24l10 14h22q40 0 69.5 -20t52.5 -64l92 -169q9 -16 8 -31t-11 -24.5t-29 -9.5q-20 0 -32 8.5t-21 25.5l-108 198q-22 42 -50 55.5
t-75 13.5h-120v-253q0 -23 -11.5 -35.5t-35.5 -12.5zM178 366h177q80 0 120 33.5t40 98.5t-40 98t-120 33h-177v-263zM377 770l-84 122q-9 13 -7.5 24.5t9 19t19 10t23 -2t17.5 -18.5l67 -133q5 -10 2 -19t-11 -13t-17.5 -2t-17.5 12zM248 768l-89 124q-9 13 -8 24.5t8.5 19
t18.5 10t22 -1.5t19 -18l69 -132q5 -11 2.5 -20t-10 -13.5t-16.5 -3t-16 10.5z" />
    <glyph glyph-name="uni0211" unicode="&#x211;" horiz-adv-x="365" 
d="M120 -7q-23 0 -35 12t-12 35v408q0 23 12 34.5t33 11.5t32.5 -11.5t11.5 -34.5v-77h-10q16 60 60 91t111 35q16 1 26 -7.5t11 -28.5q1 -19 -9 -30.5t-31 -13.5l-18 -1q-66 -7 -101.5 -43t-35.5 -99v-234q0 -23 -11.5 -35t-33.5 -12zM257 559l-67 160q-6 15 -2 26t14 16.5
t22.5 5.5t23 -7.5t14.5 -23.5l43 -162q3 -12 -2.5 -19.5t-14.5 -10t-18 1t-13 13.5zM125 559l-67 160q-6 15 -2 26t14 16.5t22.5 5.5t22.5 -7.5t14 -23.5l44 -162q3 -12 -2.5 -19.5t-14.5 -10t-18 1t-13 13.5z" />
    <glyph glyph-name="uni0212" unicode="&#x212;" horiz-adv-x="673" 
d="M131 -7q-22 0 -34 12.5t-12 35.5v617q0 23 12.5 35t34.5 12h238q114 0 175.5 -53.5t61.5 -151.5q0 -64 -28 -109.5t-81 -69.5t-128 -24l10 14h22q40 0 69.5 -20t52.5 -64l92 -169q9 -16 8 -31t-11 -24.5t-29 -9.5q-20 0 -32 8.5t-21 25.5l-108 198q-22 42 -50 55.5
t-75 13.5h-120v-253q0 -23 -11.5 -35.5t-35.5 -12.5zM178 366h177q80 0 120 33.5t40 98.5t-40 98t-120 33h-177v-263zM197 759q-11 1 -19 11t-4 25q15 72 61.5 106.5t106.5 34.5t107 -34.5t61 -106.5q4 -15 -4 -25t-19 -11q-9 0 -16 3t-11 8.5t-6 12.5q-10 52 -42 73t-70 21
q-37 0 -69 -21t-43 -73q-2 -7 -6 -12.5t-10.5 -8.5t-16.5 -3z" />
    <glyph glyph-name="uni0213" unicode="&#x213;" horiz-adv-x="365" 
d="M120 -7q-23 0 -35 12t-12 35v408q0 23 12 34.5t33 11.5t32.5 -11.5t11.5 -34.5v-77h-10q16 60 60 91t111 35q16 1 26 -7.5t11 -28.5q1 -19 -9 -30.5t-31 -13.5l-18 -1q-66 -7 -101.5 -43t-35.5 -99v-234q0 -23 -11.5 -35t-33.5 -12zM89 547q-12 1 -20 10.5t-6 25.5
q6 49 26 85.5t52.5 57t76.5 20.5t76.5 -20.5t53 -57t25.5 -85.5q2 -16 -5.5 -25.5t-20.5 -10.5q-12 0 -20.5 7t-10.5 22q-6 55 -32.5 82.5t-65.5 27.5t-65 -27.5t-33 -82.5q-2 -15 -10 -22t-21 -7z" />
    <glyph glyph-name="uni0214" unicode="&#x214;" horiz-adv-x="731" 
d="M366 -9q-70 0 -123.5 18.5t-89.5 55t-54.5 91t-18.5 126.5v383q0 24 12 35.5t34 11.5q23 0 35 -11.5t12 -35.5v-380q0 -107 49 -159.5t144 -52.5t144 52.5t49 159.5v380q0 24 12 35.5t34 11.5t34 -11.5t12 -35.5v-383q0 -95 -32.5 -160t-96 -98t-156.5 -33zM401 770
l-84 122q-9 13 -7.5 24.5t9 19t19 10t23 -2t17.5 -18.5l67 -133q5 -10 2 -19t-11 -13t-17.5 -2t-17.5 12zM272 768l-89 124q-9 13 -8 24.5t8.5 19t18.5 10t22 -1.5t19 -18l69 -132q5 -11 2.5 -20t-10 -13.5t-16.5 -3t-16 10.5z" />
    <glyph glyph-name="uni0215" unicode="&#x215;" horiz-adv-x="565" 
d="M247 -9q-59 0 -98.5 22t-58.5 65t-19 108v262q0 23 11.5 34.5t33.5 11.5t34 -11.5t12 -34.5v-262q0 -62 25 -91.5t79 -29.5q60 0 97.5 40t37.5 106v237q0 23 11.5 34.5t33.5 11.5t34 -11.5t12 -34.5v-408q0 -47 -44 -47q-22 0 -33.5 12t-11.5 35v87l13 -17
q-20 -58 -64.5 -88.5t-104.5 -30.5zM321 560l-67 160q-6 15 -2 26t14 16.5t22.5 5.5t23 -7.5t14.5 -23.5l43 -162q3 -12 -2.5 -19.5t-14.5 -10t-18 1t-13 13.5zM189 560l-67 160q-6 15 -2 26t14 16.5t22.5 5.5t22.5 -7.5t14 -23.5l44 -162q3 -12 -2.5 -19.5t-14.5 -10t-18 1
t-13 13.5z" />
    <glyph glyph-name="uni0216" unicode="&#x216;" horiz-adv-x="731" 
d="M366 -9q-70 0 -123.5 18.5t-89.5 55t-54.5 91t-18.5 126.5v383q0 24 12 35.5t34 11.5q23 0 35 -11.5t12 -35.5v-380q0 -107 49 -159.5t144 -52.5t144 52.5t49 159.5v380q0 24 12 35.5t34 11.5t34 -11.5t12 -35.5v-383q0 -95 -32.5 -160t-96 -98t-156.5 -33zM221 759
q-11 1 -19 11t-4 25q15 72 61.5 106.5t106.5 34.5t107 -34.5t61 -106.5q4 -15 -4 -25t-19 -11q-9 0 -16 3t-11 8.5t-6 12.5q-10 52 -42 73t-70 21q-37 0 -69 -21t-43 -73q-2 -7 -6 -12.5t-10.5 -8.5t-16.5 -3z" />
    <glyph glyph-name="uni0217" unicode="&#x217;" horiz-adv-x="565" 
d="M247 -9q-59 0 -98.5 22t-58.5 65t-19 108v262q0 23 11.5 34.5t33.5 11.5t34 -11.5t12 -34.5v-262q0 -62 25 -91.5t79 -29.5q60 0 97.5 40t37.5 106v237q0 23 11.5 34.5t33.5 11.5t34 -11.5t12 -34.5v-408q0 -47 -44 -47q-22 0 -33.5 12t-11.5 35v87l13 -17
q-20 -58 -64.5 -88.5t-104.5 -30.5zM153 548q-12 1 -20 10.5t-6 25.5q6 49 26 85.5t52.5 57t76.5 20.5t76.5 -20.5t53 -57t25.5 -85.5q2 -16 -5.5 -25.5t-20.5 -10.5q-12 0 -20.5 7t-10.5 22q-6 55 -32.5 82.5t-65.5 27.5t-65 -27.5t-33 -82.5q-2 -15 -10 -22t-21 -7z" />
    <glyph glyph-name="uni0218" unicode="&#x218;" horiz-adv-x="618" 
d="M316 -9q-47 0 -91 7.5t-83 22.5t-70 37q-13 9 -18.5 22t-3 25.5t11 21.5t20.5 11t26 -8q46 -31 96.5 -45t111.5 -14q88 0 129.5 32t41.5 84q0 43 -30 67.5t-101 38.5l-106 22q-94 20 -140.5 66t-46.5 123q0 47 19 85.5t54 66.5t82.5 43t105.5 15q62 0 116.5 -17t98.5 -50
q12 -9 16 -21.5t1.5 -24.5t-11 -20t-21 -9t-27.5 9q-40 28 -82 40.5t-92 12.5q-51 0 -88.5 -16t-58 -44.5t-20.5 -66.5q0 -46 28 -72t94 -40l105 -21q100 -21 148.5 -64.5t48.5 -116.5q0 -46 -18.5 -83t-52.5 -63.5t-83 -41t-110 -14.5zM335 -252q-9 -11 -19.5 -13t-18 3.5
t-9 15.5t7.5 23q11 15 16 33t5 32l3 -16q-27 0 -42 14t-15 37t14.5 36t39.5 13q26 0 41 -14.5t15 -45.5q0 -19 -4 -40.5t-12.5 -41.5t-21.5 -36z" />
    <glyph glyph-name="uni0219" unicode="&#x219;" horiz-adv-x="483" 
d="M241 -9q-45 0 -90.5 10.5t-85.5 36.5q-11 7 -15.5 17.5t-3 21t8.5 18.5t17.5 9.5t22.5 -5.5q39 -22 75.5 -31t72.5 -9q55 0 83 20t28 53q0 28 -18.5 43.5t-57.5 23.5l-93 19q-62 14 -93.5 46.5t-31.5 83.5q0 45 24.5 78.5t68.5 51.5t101 18q44 0 83.5 -11.5t71.5 -34.5
q12 -7 15.5 -17.5t1 -21t-9.5 -17.5t-18 -8.5t-24 5.5q-29 20 -59.5 28.5t-60.5 8.5q-54 0 -81.5 -21t-27.5 -55q0 -26 16.5 -43t52.5 -25l93 -19q65 -14 98 -44.5t33 -82.5q0 -68 -53.5 -107.5t-143.5 -39.5zM258 -252q-9 -11 -19.5 -13t-18 3.5t-9 15.5t7.5 23
q11 15 16 33t5 32l3 -16q-27 0 -42 14t-15 37t14.5 36t39.5 13q26 0 41 -14.5t15 -45.5q0 -19 -4 -40.5t-12.5 -41.5t-21.5 -36z" />
    <glyph glyph-name="uni021A" unicode="&#x21a;" horiz-adv-x="607" 
d="M304 -7q-23 0 -35 12.5t-12 35.5v585h-219q-19 0 -30 10.5t-11 29.5t11 29t30 10h531q20 0 30.5 -10t10.5 -29t-10.5 -29.5t-30.5 -10.5h-219v-585q0 -23 -11.5 -35.5t-34.5 -12.5zM321 -252q-9 -11 -19.5 -13t-18 3.5t-9 15.5t7.5 23q11 15 16 33t5 32l3 -16
q-27 0 -42 14t-15 37t14.5 36t39.5 13q26 0 41 -14.5t15 -45.5q0 -19 -4 -40.5t-12.5 -41.5t-21.5 -36z" />
    <glyph glyph-name="uni021B" unicode="&#x21b;" horiz-adv-x="358" 
d="M275 -9q-59 0 -98.5 21t-59 61t-19.5 98v246h-64q-18 0 -28 9.5t-10 25.5q0 17 10 26t28 9h64v109q0 23 12 34.5t34 11.5t33.5 -11.5t11.5 -34.5v-109h121q19 0 29 -9t10 -26q0 -16 -10 -25.5t-29 -9.5h-121v-238q0 -55 23 -83t76 -28q19 0 32 3.5t23 3.5q9 1 15.5 -6
t6.5 -26q0 -14 -4.5 -25.5t-17.5 -15.5q-12 -4 -32 -7.5t-36 -3.5zM236 -252q-9 -11 -19.5 -13t-18 3.5t-9 15.5t7.5 23q11 15 16 33t5 32l3 -16q-27 0 -42 14t-15 37t14.5 36t39.5 13q26 0 41 -14.5t15 -45.5q0 -19 -4 -40.5t-12.5 -41.5t-21.5 -36z" />
    <glyph glyph-name="uni021F" unicode="&#x21f;" horiz-adv-x="572" 
d="M118 -7q-21 0 -33 12t-12 35v626q0 23 12 34.5t33 11.5q22 0 34 -11.5t12 -34.5v-285h-13q21 57 68.5 86t108.5 29q59 0 97 -21.5t57 -64.5t19 -108v-262q0 -23 -11.5 -35t-33.5 -12t-34 12t-12 35v257q0 65 -25 95t-80 30q-64 0 -102.5 -39.5t-38.5 -106.5v-236
q0 -47 -46 -47zM287 756q-17 0 -31 7t-25 23l-85 118q-8 11 -5.5 21t12 16t20.5 4.5t21 -12.5l93 -112l94 112q10 11 21 12.5t20 -4.5t11.5 -15.5t-5.5 -21.5l-84 -118q-11 -16 -25.5 -23t-31.5 -7z" />
    <glyph glyph-name="uni0226" unicode="&#x226;" horiz-adv-x="733" 
d="M75 -7q-18 0 -28.5 8t-12.5 22t6 31l273 618q9 21 23 30.5t31 9.5t30.5 -9.5t23.5 -30.5l273 -618q8 -17 6.5 -31.5t-11.5 -22t-28 -7.5q-20 0 -32 10.5t-21 30.5l-71 166l43 -24h-428l43 24l-71 -166q-9 -22 -20 -31.5t-29 -9.5zM365 600l-156 -369l-24 21h362l-23 -21
l-157 369h-2zM367 800q-25 0 -38.5 13.5t-13.5 37.5q0 25 13.5 38t38.5 13q26 0 39 -13t13 -38q0 -24 -13 -37.5t-39 -13.5z" />
    <glyph glyph-name="uni0227" unicode="&#x227;" horiz-adv-x="533" 
d="M228 -9q-50 0 -90.5 20t-63 54t-22.5 76q0 54 27 85t91 44.5t172 13.5h47v-58h-45q-77 0 -121.5 -7t-62.5 -24.5t-18 -48.5q0 -39 27.5 -64t75.5 -25q38 0 67 18.5t46 50t17 72.5v115q0 59 -24 85.5t-81 26.5q-33 0 -68 -9t-73 -28q-15 -7 -26 -4.5t-17.5 12t-7 21
t5 22.5t19.5 16q44 22 87.5 31.5t81.5 9.5q65 0 107 -20.5t63 -63t21 -108.5v-264q0 -23 -11 -35t-32 -12q-20 0 -31.5 12t-11.5 35v71h9q-8 -37 -30 -64t-54.5 -41.5t-73.5 -14.5zM273 602q-25 0 -39 14t-14 38q0 25 14 37.5t39 12.5q26 0 39.5 -12.5t13.5 -37.5
t-13.5 -38.5t-39.5 -13.5z" />
    <glyph glyph-name="uni0228" unicode="&#x228;" horiz-adv-x="586" 
d="M135 0q-24 0 -37 13t-13 37v605q0 24 13 37t37 13h368q19 0 29.5 -9.5t10.5 -27.5q0 -19 -10.5 -29t-29.5 -10h-328v-233h307q19 0 29 -10t10 -28q0 -19 -10 -28.5t-29 -9.5h-307v-244h328q19 0 29.5 -9.5t10.5 -28.5t-10.5 -28.5t-29.5 -9.5h-368zM328 -193
q-19 0 -38.5 2.5t-35.5 9.5q-12 4 -16.5 14t-1.5 19.5t12 14t21 -0.5q12 -4 25 -6.5t29 -2.5q27 0 42.5 9t15.5 27q0 12 -9 19t-29 7q-8 0 -15.5 -0.5t-16.5 -3.5q-8 -2 -13.5 -2t-10.5 4q-4 3 -5 9t0 16l12 78h55l-13 -76l-26 8q12 3 24 5t22 2q37 0 61 -18t24 -51
q0 -37 -31.5 -60t-81.5 -23z" />
    <glyph glyph-name="uni022A" unicode="&#x22a;" horiz-adv-x="771" 
d="M386 -9q-100 0 -173 44.5t-113.5 126t-40.5 191.5q0 83 23 149.5t65.5 114t103 72.5t135.5 25q100 0 173 -44t113 -125t40 -191q0 -83 -23 -150t-65.5 -115t-102.5 -73t-135 -25zM386 73q72 0 123 33t78.5 96t27.5 151q0 133 -59.5 206t-169.5 73q-72 0 -123.5 -32.5
t-78.5 -95t-27 -151.5q0 -132 60 -206t169 -74zM265 925q-16 0 -25 8t-9 22t9 21.5t25 7.5h240q17 0 25.5 -7.5t8.5 -21.5t-8.5 -22t-25.5 -8h-240zM297 791q-24 0 -37.5 11.5t-13.5 31.5t13.5 30.5t37.5 10.5t37 -10.5t13 -30.5t-13 -31.5t-37 -11.5zM474 791
q-24 0 -37 11.5t-13 31.5t13 30.5t37 10.5t37 -10.5t13 -30.5t-12.5 -31.5t-37.5 -11.5z" />
    <glyph glyph-name="uni022B" unicode="&#x22b;" horiz-adv-x="560" 
d="M280 -9q-72 0 -125 31t-82 88t-29 134q0 58 16.5 104.5t47.5 79.5t74.5 50.5t97.5 17.5q72 0 125 -31t82 -87.5t29 -133.5q0 -58 -16.5 -105t-47.5 -80t-74.5 -50.5t-97.5 -17.5zM280 63q44 0 76.5 21t50 61t17.5 99q0 88 -39 134t-105 46q-43 0 -75.5 -20.5t-50.5 -60.5
t-18 -99q0 -88 39.5 -134.5t104.5 -46.5zM160 707q-16 0 -25 8t-9 22t9 21.5t25 7.5h240q17 0 25.5 -7.5t8.5 -21.5t-8.5 -22t-25.5 -8h-240zM192 573q-24 0 -37.5 11t-13.5 32q0 20 13.5 30.5t37.5 10.5t37 -10.5t13 -30.5q0 -21 -13 -32t-37 -11zM369 573q-24 0 -37 11
t-13 32q0 20 13 30.5t37 10.5t37 -10.5t13 -30.5q0 -21 -12.5 -32t-37.5 -11z" />
    <glyph glyph-name="uni022C" unicode="&#x22c;" horiz-adv-x="771" 
d="M386 -9q-100 0 -173 44.5t-113.5 126t-40.5 191.5q0 83 23 149.5t65.5 114t103 72.5t135.5 25q100 0 173 -44t113 -125t40 -191q0 -83 -23 -150t-65.5 -115t-102.5 -73t-135 -25zM386 73q72 0 123 33t78.5 96t27.5 151q0 133 -59.5 206t-169.5 73q-72 0 -123.5 -32.5
t-78.5 -95t-27 -151.5q0 -132 60 -206t169 -74zM265 925q-16 0 -25 8t-9 22t9 21.5t25 7.5h240q17 0 25.5 -7.5t8.5 -21.5t-8.5 -22t-25.5 -8h-240zM249 766q-11 1 -17 9.5t-3 21.5q9 37 33 56t58 19q28 0 49 -13t40 -25.5t39 -12.5q17 0 28.5 7t16.5 24q4 11 11 16.5
t18 4.5q12 -1 18 -9t2 -22q-9 -37 -33.5 -56t-57.5 -19q-28 0 -49.5 13t-40.5 25.5t-38 12.5q-17 0 -28.5 -7t-16.5 -24q-3 -11 -10.5 -16.5t-18.5 -4.5z" />
    <glyph glyph-name="uni022D" unicode="&#x22d;" horiz-adv-x="560" 
d="M280 -9q-72 0 -125 31t-82 88t-29 134q0 58 16.5 104.5t47.5 79.5t74.5 50.5t97.5 17.5q72 0 125 -31t82 -87.5t29 -133.5q0 -58 -16.5 -105t-47.5 -80t-74.5 -50.5t-97.5 -17.5zM280 63q44 0 76.5 21t50 61t17.5 99q0 88 -39 134t-105 46q-43 0 -75.5 -20.5t-50.5 -60.5
t-18 -99q0 -88 39.5 -134.5t104.5 -46.5zM160 707q-16 0 -25 8t-9 22t9 21.5t25 7.5h240q17 0 25.5 -7.5t8.5 -21.5t-8.5 -22t-25.5 -8h-240zM144 548q-11 1 -17.5 9t-2.5 22q9 37 33 56t58 19q28 0 49 -13t40 -25.5t39 -12.5q17 0 28 7t17 24q4 11 11 16.5t18 4.5
q12 -1 18 -9t2 -22q-9 -37 -33.5 -56t-57.5 -19q-28 0 -49.5 13t-40.5 25.5t-38 12.5q-17 0 -28.5 -7t-16.5 -24q-3 -11 -10.5 -16.5t-18.5 -4.5z" />
    <glyph glyph-name="uni0230" unicode="&#x230;" horiz-adv-x="771" 
d="M386 -9q-100 0 -173 44.5t-113.5 126t-40.5 191.5q0 83 23 149.5t65.5 114t103 72.5t135.5 25q100 0 173 -44t113 -125t40 -191q0 -83 -23 -150t-65.5 -115t-102.5 -73t-135 -25zM386 73q72 0 123 33t78.5 96t27.5 151q0 133 -59.5 206t-169.5 73q-72 0 -123.5 -32.5
t-78.5 -95t-27 -151.5q0 -132 60 -206t169 -74zM265 925q-16 0 -25 8t-9 22t9 21.5t25 7.5h240q17 0 25.5 -7.5t8.5 -21.5t-8.5 -22t-25.5 -8h-240zM386 791q-24 0 -37.5 11.5t-13.5 31.5t13.5 30.5t37.5 10.5t37 -10.5t13 -30.5t-13 -31.5t-37 -11.5z" />
    <glyph glyph-name="uni0231" unicode="&#x231;" horiz-adv-x="560" 
d="M280 -9q-72 0 -125 31t-82 88t-29 134q0 58 16.5 104.5t47.5 79.5t74.5 50.5t97.5 17.5q72 0 125 -31t82 -87.5t29 -133.5q0 -58 -16.5 -105t-47.5 -80t-74.5 -50.5t-97.5 -17.5zM280 63q44 0 76.5 21t50 61t17.5 99q0 88 -39 134t-105 46q-43 0 -75.5 -20.5t-50.5 -60.5
t-18 -99q0 -88 39.5 -134.5t104.5 -46.5zM160 707q-16 0 -25 8t-9 22t9 21.5t25 7.5h240q17 0 25.5 -7.5t8.5 -21.5t-8.5 -22t-25.5 -8h-240zM281 573q-24 0 -37.5 11t-13.5 32q0 20 13.5 30.5t37.5 10.5t37 -10.5t13 -30.5q0 -21 -13 -32t-37 -11z" />
    <glyph glyph-name="uni0232" unicode="&#x232;" horiz-adv-x="601" 
d="M300 -7q-22 0 -34 12.5t-12 36.5v323l20 -62l-248 344q-10 14 -9.5 29.5t11.5 25.5t30 10q15 0 27 -7t23 -23l206 -284h-23l206 284q11 17 22 23.5t28 6.5q18 0 28.5 -9.5t11 -24.5t-11.5 -31l-248 -344l20 62v-323q0 -49 -47 -49zM164 813q-32 0 -32 29q0 14 8 22t24 8
h273q32 0 32 -30q0 -14 -8.5 -21.5t-23.5 -7.5h-273z" />
    <glyph glyph-name="uni0233" unicode="&#x233;" horiz-adv-x="517" 
d="M185 -187q-16 0 -26.5 8.5t-12 23t5.5 30.5l68 154v-38l-189 440q-7 17 -5 31t13.5 23t31.5 9q17 0 27 -8t19 -28l157 -387h-28l160 387q8 20 19 28t30 8q17 0 26.5 -9t11.5 -23t-6 -30l-252 -583q-10 -21 -20.5 -28.5t-29.5 -7.5zM138 623q-32 0 -32 30q0 14 8 21.5
t24 7.5h243q32 0 32 -29q0 -14 -8.5 -22t-23.5 -8h-243z" />
    <glyph glyph-name="uni0237" unicode="&#x237;" horiz-adv-x="241" 
d="M-12 -190q-16 -1 -27 5t-15 16.5t-2 21t9.5 18t20.5 8.5q53 3 78 28.5t25 79.5v461q0 23 12 34.5t34 11.5q21 0 33 -11.5t12 -34.5v-454q0 -62 -20.5 -101.5t-60.5 -59.5t-99 -23z" />
    <glyph glyph-name="uni0253" unicode="&#x253;" horiz-adv-x="587" 
d="M328 -9q-66 0 -113 33t-63 89l11 15v-88q0 -23 -11.5 -35t-33.5 -12q-21 0 -33 12t-12 35v498q0 83 44 129.5t128 46.5q35 0 50 -10t15 -29q0 -17 -7.5 -27.5t-20.5 -9.5q-6 0 -12.5 1t-15.5 1q-43 0 -66.5 -25.5t-23.5 -74.5v-163h-11q16 54 63 86.5t112 32.5
t113.5 -30.5t75 -87t26.5 -134.5q0 -77 -27 -134.5t-75 -88t-113 -30.5zM307 63q43 0 75.5 21t50.5 61t18 99q0 88 -39 134t-105 46q-44 0 -76.5 -20.5t-50 -60.5t-17.5 -99q0 -88 39 -134.5t105 -46.5z" />
    <glyph glyph-name="uni0257" unicode="&#x257;" horiz-adv-x="587" 
d="M259 -9q-64 0 -112.5 30.5t-75.5 88t-27 134.5q0 78 26.5 134.5t75 87t113.5 30.5t112 -32.5t63 -86.5h-11v161q0 83 43.5 129.5t127.5 46.5q36 0 51 -10t15 -29q0 -17 -8 -27.5t-21 -9.5q-5 0 -12 1t-16 1q-42 0 -65.5 -25.5t-23.5 -74.5v-500q0 -23 -12 -35t-34 -12
q-21 0 -33 12t-12 35v91l11 -18q-15 -56 -62.5 -89t-112.5 -33zM280 63q44 0 76.5 21t50 61t17.5 99q0 88 -39 134t-105 46q-43 0 -75.5 -20.5t-50.5 -60.5t-18 -99q0 -88 39.5 -134.5t104.5 -46.5z" />
    <glyph glyph-name="uni0259" unicode="&#x259;" horiz-adv-x="535" 
d="M258 -9q-69 0 -117.5 28.5t-74.5 83t-26 129.5q0 15 10 23.5t28 8.5h342v-58h-319l20 14q0 -52 15 -88.5t45 -55.5t76 -19t79 21.5t50 61.5t17 95v7q0 89 -43 135.5t-123 46.5q-32 0 -65.5 -8.5t-65.5 -29.5q-16 -10 -28 -9t-19.5 8.5t-9.5 19t3 23t18 19.5
q34 24 79.5 36.5t87.5 12.5q78 0 135 -30.5t88 -86.5t31 -134q0 -76 -29.5 -133t-82 -89t-121.5 -32z" />
    <glyph glyph-name="uni0292" unicode="&#x292;" horiz-adv-x="500" 
d="M229 -189q-58 0 -107.5 12t-87.5 36q-14 8 -18.5 19t-2.5 22.5t9.5 19.5t18.5 10t24 -7q32 -20 70.5 -30t84.5 -10q79 0 118 35.5t39 102.5q0 61 -38.5 93.5t-111.5 32.5h-80q-15 0 -21.5 8.5t-4 21t12.5 24.5l218 235v-22h-286q-18 0 -28.5 9.5t-10.5 27.5q0 36 39 36
h338q16 0 25.5 -7t12.5 -18.5t-0.5 -24.5t-14.5 -23l-209 -227l-24 26h61q67 0 114.5 -22.5t73 -64t25.5 -100.5q0 -67 -28.5 -115t-82 -74t-128.5 -26z" />
    <glyph glyph-name="uni02B9" unicode="&#x2b9;" horiz-adv-x="226" 
d="M114 418q-13 0 -22.5 9t-10.5 26l-17 205q-3 23 12 38.5t37 15.5q23 0 37.5 -15t11.5 -39l-15 -205q-1 -17 -10.5 -26t-22.5 -9z" />
    <glyph glyph-name="uni02BA" unicode="&#x2ba;" horiz-adv-x="405" 
d="M114 418q-13 0 -22.5 9.5t-11.5 25.5l-16 205q-2 23 12.5 38.5t36.5 15.5q15 0 26.5 -7t18 -19t4.5 -28l-15 -205q-1 -16 -10.5 -25.5t-22.5 -9.5zM292 418q-13 0 -22.5 9.5t-11.5 25.5l-16 205q-2 23 12.5 38.5t36.5 15.5q15 0 26.5 -7t18 -19t4.5 -28l-15 -205
q-1 -16 -10.5 -25.5t-22.5 -9.5z" />
    <glyph glyph-name="uni02BB" unicode="&#x2bb;" horiz-adv-x="500" 
d="M251 562q-26 0 -41 15t-15 45q0 19 4 40.5t13 42t21 35.5q9 11 19.5 13t18 -3.5t9 -15.5t-7.5 -23q-11 -15 -16 -32.5t-5 -32.5l-3 16q27 0 42 -13t15 -38q0 -23 -14.5 -36t-39.5 -13z" />
    <glyph glyph-name="uni02BC" unicode="&#x2bc;" horiz-adv-x="330" 
d="M181 585q-8 -11 -18.5 -12.5t-18.5 3.5t-9 15t8 23q11 16 16 33.5t5 31.5l3 -16q-27 0 -42.5 13.5t-15.5 36.5q0 24 14.5 37.5t40.5 13.5t40.5 -15t14.5 -46q0 -19 -4 -40.5t-12 -41.5t-22 -36z" />
    <glyph glyph-name="uni02BE" unicode="&#x2be;" horiz-adv-x="500" 
d="M275 556q-14 -3 -23 3t-9 17q0 12 7 17t20 11q15 5 23.5 19t8.5 31q0 16 -8.5 30t-23.5 19q-13 6 -20 11t-7 17q0 11 9 17.5t23 2.5q35 -8 56.5 -35.5t21.5 -61.5q0 -35 -21.5 -62.5t-56.5 -35.5z" />
    <glyph glyph-name="uni02BF" unicode="&#x2bf;" horiz-adv-x="500" 
d="M225 556q-35 8 -56 35.5t-21 62.5q0 34 21 61.5t56 35.5q15 4 23.5 -2.5t8.5 -17.5q0 -12 -7 -17t-19 -11q-16 -5 -24.5 -18.5t-8.5 -30.5t8.5 -30.5t24.5 -19.5q12 -6 19 -11t7 -17q0 -11 -8.5 -17t-23.5 -3z" />
    <glyph glyph-name="circumflex" unicode="&#x2c6;" horiz-adv-x="477" 
d="M372 585q7 -13 3.5 -23t-13 -15t-20 -3t-17.5 13l-87 139l-87 -139q-7 -11 -17.5 -13t-20 3t-13 15t3.5 23l80 148q10 18 23.5 26t30.5 8t31 -8t23 -26z" />
    <glyph glyph-name="caron" unicode="&#x2c7;" horiz-adv-x="477" 
d="M238 538q-17 0 -30.5 9t-23.5 27l-80 147q-7 12 -3.5 22.5t13 15t20 3t17.5 -12.5l87 -139l87 139q7 11 17.5 12.5t20 -3t13 -15t-3.5 -22.5l-80 -147q-9 -18 -23 -27t-31 -9z" />
    <glyph glyph-name="uni02C8" unicode="&#x2c8;" horiz-adv-x="500" 
d="M250 588q-15 0 -23.5 9t-8.5 24v148q0 34 32 34q16 0 24 -9t8 -25v-148q0 -33 -32 -33z" />
    <glyph glyph-name="uni02C9" unicode="&#x2c9;" horiz-adv-x="500" 
d="M124 623q-31 0 -31 30q0 14 8 21.5t23 7.5h252q32 0 32 -29q0 -14 -8.5 -22t-23.5 -8h-252z" />
    <glyph glyph-name="uni02CA" unicode="&#x2ca;" horiz-adv-x="500" 
d="M286 557q-8 -10 -18.5 -12.5t-20.5 3t-14 15.5t2 23l82 159q7 16 19 20.5t24.5 1.5t21.5 -11.5t10.5 -21t-7.5 -25.5z" />
    <glyph glyph-name="uni02CB" unicode="&#x2cb;" horiz-adv-x="500" 
d="M215 557l-100 152q-9 13 -7 25.5t11 21t21 11.5t24 -1.5t20 -20.5l81 -159q6 -13 2.5 -23t-13.5 -15.5t-21 -3.5t-18 13z" />
    <glyph glyph-name="uni02CC" unicode="&#x2cc;" horiz-adv-x="500" 
d="M250 -277q-15 0 -23.5 9t-8.5 25v149q0 33 32 33q16 0 24 -8.5t8 -24.5v-149q0 -34 -32 -34z" />
    <glyph glyph-name="breve" unicode="&#x2d8;" horiz-adv-x="511" 
d="M255 549q-44 0 -76 20.5t-52 57t-27 85.5q-2 16 6 25.5t20 10.5q13 0 21 -7t10 -22q7 -55 33 -82.5t65 -27.5t65.5 27.5t32.5 82.5q2 15 10.5 22t20.5 7q13 -1 20.5 -10.5t5.5 -25.5q-6 -49 -26 -85.5t-52.5 -57t-76.5 -20.5z" />
    <glyph glyph-name="dotaccent" unicode="&#x2d9;" horiz-adv-x="306" 
d="M153 602q-25 0 -39 14t-14 38q0 25 14 37.5t39 12.5q26 0 39.5 -12.5t13.5 -37.5t-13.5 -38.5t-39.5 -13.5z" />
    <glyph glyph-name="ring" unicode="&#x2da;" horiz-adv-x="441" 
d="M220 546q-33 0 -60.5 16t-43.5 43t-16 59q0 33 16 59.5t43.5 42t60.5 15.5q34 0 61 -15.5t43 -42t16 -59.5q0 -32 -16 -59t-43 -43t-61 -16zM220 593q31 0 50.5 20.5t19.5 50.5t-19.5 50t-50.5 20q-30 0 -50 -20t-20 -50t20 -50.5t50 -20.5z" />
    <glyph glyph-name="ogonek" unicode="&#x2db;" horiz-adv-x="388" 
d="M209 -193q-50 0 -79.5 27t-29.5 72q0 40 26.5 75.5t71.5 55.5l30 -37q-16 -7 -31 -19t-24.5 -28.5t-9.5 -36.5q0 -27 16.5 -41t41.5 -14q8 0 16.5 1.5t16.5 4.5q15 4 23 -1.5t10.5 -15.5t-2.5 -19.5t-17 -14.5q-15 -6 -30 -7.5t-29 -1.5z" />
    <glyph glyph-name="tilde" unicode="&#x2dc;" horiz-adv-x="562" 
d="M123 586q-12 0 -18.5 7.5t-3.5 22.5q4 23 12 43t21.5 35.5t31.5 25t42 9.5t43 -11.5t35 -26t32 -25.5t35 -11q22 0 37.5 16.5t20.5 44.5q2 9 9 14t19 5q12 -1 18.5 -8.5t3.5 -22.5q-5 -30 -18.5 -55.5t-35 -41t-53.5 -15.5q-24 0 -43 11t-35.5 25.5t-32.5 25.5t-34 11
q-22 0 -37.5 -16t-20.5 -44q-2 -10 -9 -15t-19 -4z" />
    <glyph glyph-name="hungarumlaut" unicode="&#x2dd;" horiz-adv-x="452" 
d="M282 559q-5 -10 -13.5 -13.5t-18 -1t-14.5 10t-2 19.5l43 162q4 16 14 23.5t22.5 7.5t22.5 -5.5t14.5 -16.5t-2.5 -26zM149 559q-4 -10 -13 -13.5t-18 -1t-14.5 10t-2.5 19.5l43 162q5 16 15 23.5t22.5 7.5t22.5 -6t14 -16.5t-2 -25.5z" />
    <glyph glyph-name="gravecomb" unicode="&#x300;" 
d="M-35 557l-100 152q-9 14 -7 26t11 20.5t21 11.5t24 -1.5t20 -20.5l81 -159q6 -13 2.5 -23t-13.5 -15.5t-21 -3.5t-18 13z" />
    <glyph glyph-name="acutecomb" unicode="&#x301;" 
d="M36 557q-8 -11 -18.5 -13t-20.5 3.5t-14 15.5t2 23l82 159q7 16 19 20.5t24.5 1.5t21.5 -11.5t10.5 -21t-6.5 -25.5z" />
    <glyph glyph-name="uni0302" unicode="&#x302;" 
d="M134 585q7 -13 3.5 -23t-13 -15t-20 -3t-17.5 13l-87 139l-87 -139q-7 -11 -17.5 -13t-20 3t-13 15t3.5 23l80 148q10 18 23.5 26t30.5 8t31 -8t23 -26z" />
    <glyph glyph-name="tildecomb" unicode="&#x303;" 
d="M-158 586q-12 0 -18.5 7.5t-3.5 22.5q4 23 12 43t21.5 35.5t31.5 25t42 9.5t43 -11.5t35 -26t32 -25.5t35 -11q22 0 37.5 16.5t20.5 44.5q2 9 9 14t19 5q12 -1 18.5 -8.5t3.5 -22.5q-5 -30 -18.5 -55.5t-35 -41t-53.5 -15.5q-24 0 -43 11t-35.5 25.5t-32.5 25.5t-34 11
q-22 0 -37.5 -16t-20.5 -44q-2 -10 -9 -15t-19 -4z" />
    <glyph glyph-name="uni0304" unicode="&#x304;" 
d="M-121 623q-32 0 -32 30q0 14 8 21.5t24 7.5h243q32 0 32 -29q0 -14 -8.5 -22t-23.5 -8h-243z" />
    <glyph glyph-name="uni0306" unicode="&#x306;" 
d="M0 549q-44 0 -76 20.5t-52 57t-27 85.5q-2 16 6 25.5t20 10.5q13 0 21 -7t10 -22q7 -55 33 -82.5t65 -27.5t65.5 27.5t32.5 82.5q2 15 10.5 22t20.5 7q13 -1 20.5 -10.5t5.5 -25.5q-6 -49 -26 -85.5t-52.5 -57t-76.5 -20.5z" />
    <glyph glyph-name="uni0307" unicode="&#x307;" 
d="M0 602q-25 0 -39 14t-14 38q0 25 14 37.5t39 12.5q26 0 39.5 -12.5t13.5 -37.5t-13.5 -38.5t-39.5 -13.5z" />
    <glyph glyph-name="uni0308" unicode="&#x308;" 
d="M89 603q-24 0 -37 13t-13 37t13 36.5t37 12.5t37 -12.5t13 -36.5t-12.5 -37t-37.5 -13zM-88 603q-24 0 -37.5 13t-13.5 37t13.5 36.5t37.5 12.5t37 -12.5t13 -36.5t-13 -37t-37 -13z" />
    <glyph glyph-name="hookabovecomb" unicode="&#x309;" 
d="M0 545q-14 0 -22 6t-8 17q0 25 9.5 40.5t21 27t21 21.5t9.5 24t-11 21t-34 7q-9 0 -20 -2t-22 -5q-14 -5 -22.5 -2.5t-11.5 12.5q-4 12 -0.5 20.5t18.5 14.5q16 7 35.5 10t40.5 3q47 0 73.5 -17.5t26.5 -51.5q0 -25 -11.5 -40t-26 -26t-25.5 -24t-11 -34
q0 -11 -7.5 -16.5t-22.5 -5.5z" />
    <glyph glyph-name="uni030A" unicode="&#x30a;" 
d="M0 546q-33 0 -60.5 16t-43.5 43t-16 59q0 33 16 59.5t43.5 42t60.5 15.5q34 0 61 -15.5t43 -42t16 -59.5q0 -32 -16 -59t-43 -43t-61 -16zM0 593q31 0 50.5 20.5t19.5 50.5t-19.5 50t-50.5 20q-30 0 -50 -20t-20 -50t20 -50.5t50 -20.5z" />
    <glyph glyph-name="uni030B" unicode="&#x30b;" 
d="M94 559q-5 -10 -13.5 -13.5t-18 -1t-14.5 10t-2 19.5l43 162q4 16 14 23.5t22.5 7.5t22.5 -5.5t14.5 -16.5t-2.5 -26zM-39 559q-4 -10 -13 -13.5t-18 -1t-14.5 10t-2.5 19.5l43 162q5 16 15 23.5t22.5 7.5t22.5 -6t14 -16.5t-2 -25.5z" />
    <glyph glyph-name="uni030C" unicode="&#x30c;" 
d="M0 538q-17 0 -30.5 9t-23.5 27l-80 147q-7 12 -3.5 22.5t13 15t20 3t17.5 -12.5l87 -139l87 139q7 11 17.5 12.5t20 -3t13 -15t-3.5 -22.5l-80 -147q-9 -18 -23 -27t-31 -9z" />
    <glyph glyph-name="uni030F" unicode="&#x30f;" 
d="M39 559l-67 160q-6 15 -2 26t14 16.5t22.5 5.5t23 -7.5t14.5 -23.5l43 -162q3 -12 -2.5 -19.5t-14.5 -10t-18 1t-13 13.5zM-93 559l-67 160q-6 15 -2 26t14 16.5t22.5 5.5t22.5 -7.5t14 -23.5l44 -162q3 -12 -2.5 -19.5t-14.5 -10t-18 1t-13 13.5z" />
    <glyph glyph-name="uni0311" unicode="&#x311;" 
d="M-129 547q-12 1 -20 10.5t-6 25.5q6 49 26 85.5t52.5 57t76.5 20.5t76.5 -20.5t53 -57t25.5 -85.5q2 -16 -5.5 -25.5t-20.5 -10.5q-12 0 -20.5 7t-10.5 22q-6 55 -32.5 82.5t-65.5 27.5t-65 -27.5t-33 -82.5q-2 -15 -10 -22t-21 -7z" />
    <glyph glyph-name="uni0312" unicode="&#x312;" 
d="M1 562q-26 0 -41 15t-15 45q0 19 4 40.5t13 42t21 35.5q9 11 19.5 13t18 -3.5t9 -15.5t-7.5 -23q-11 -15 -16 -32.5t-5 -32.5l-3 16q27 0 42 -13t15 -38q0 -23 -14.5 -36t-39.5 -13z" />
    <glyph glyph-name="uni031B" unicode="&#x31b;" 
d="M48 434l-48 31v22q31 0 51.5 7t32.5 19t17 30.5t5 42.5q0 34 41 34q19 0 29.5 -8t10.5 -25q0 -68 -37 -108.5t-102 -44.5z" />
    <glyph glyph-name="dotbelowcomb" unicode="&#x323;" 
d="M0 -195q-25 0 -39 13.5t-14 37.5q0 25 14 38t39 13q26 0 39.5 -13t13.5 -38q0 -24 -13.5 -37.5t-39.5 -13.5z" />
    <glyph glyph-name="uni0324" unicode="&#x324;" 
d="M89 -188q-24 0 -37 13.5t-13 37.5t13 37t37 13t37 -13t13 -37q0 -25 -12.5 -38t-37.5 -13zM-88 -188q-24 0 -37.5 13.5t-13.5 37.5t13.5 37t37.5 13t37 -13t13 -37q0 -25 -13 -38t-37 -13z" />
    <glyph glyph-name="uni0326" unicode="&#x326;" 
d="M17 -252q-9 -11 -19.5 -13t-18 3.5t-9 15.5t7.5 23q11 15 16 33t5 32l3 -16q-27 0 -42 14t-15 37t14.5 36t39.5 13q26 0 41 -14.5t15 -45.5q0 -19 -4 -40.5t-12.5 -41.5t-21.5 -36z" />
    <glyph glyph-name="uni0327" unicode="&#x327;" 
d="M3 -193q-19 0 -38.5 2.5t-35.5 9.5q-12 4 -16.5 14t-1.5 19.5t12 14t21 -0.5q12 -4 25 -6.5t29 -2.5q27 0 42.5 9t15.5 27q0 12 -9 19t-29 7q-8 0 -15.5 -0.5t-16.5 -3.5q-8 -2 -13.5 -2t-10.5 4q-4 3 -5 9t0 16l12 78h55l-13 -76l-26 8q12 3 24 5t22 2q37 0 61 -18
t24 -51q0 -37 -31.5 -60t-81.5 -23z" />
    <glyph glyph-name="uni0328" unicode="&#x328;" 
d="M-19 -193q-50 0 -79.5 27t-29.5 72q0 40 26.5 75.5t71.5 55.5l30 -37q-16 -7 -31 -19t-24.5 -28.5t-9.5 -36.5q0 -27 16.5 -41t41.5 -14q8 0 16.5 1.5t16.5 4.5q15 4 23 -1.5t10.5 -15.5t-2.5 -19.5t-17 -14.5q-15 -6 -30 -7.5t-29 -1.5z" />
    <glyph glyph-name="uni032E" unicode="&#x32e;" 
d="M0 -215q-61 0 -101.5 32.5t-52.5 91.5q-3 16 4 25.5t19 10.5q9 1 15 -1t11 -7.5t7 -15.5q7 -36 33 -57t65 -21q40 0 65.5 21t32.5 57q4 15 12.5 20.5t20.5 3.5q13 -1 19.5 -10.5t3.5 -25.5q-12 -59 -52.5 -91.5t-101.5 -32.5z" />
    <glyph glyph-name="uni0331" unicode="&#x331;" 
d="M-121 -158q-32 0 -32 30q0 14 8 21.5t24 7.5h243q32 0 32 -29q0 -14 -8.5 -22t-23.5 -8h-243z" />
    <glyph glyph-name="uni0335" unicode="&#x335;" 
d="M-158 527q-36 0 -36 34q0 15 9.5 24t26.5 9h316q36 0 36 -33q0 -16 -8.5 -25t-27.5 -9h-316z" />
    <glyph glyph-name="uni0337" unicode="&#x337;" 
d="M-91 262q-14 -8 -26 -6.5t-20 9.5t-11 18.5t1.5 22t19.5 20.5l219 127q14 8 26 6.5t20.5 -9.5t11 -18.5t-2 -22t-19.5 -19.5z" />
    <glyph glyph-name="uni0338" unicode="&#x338;" 
d="M-125 -29q-8 -13 -20 -15t-22 4t-14 18t5 26l300 516q8 13 20 15t22 -4t14.5 -18t-4.5 -26z" />
    <glyph glyph-name="uni0394" unicode="&#x394;" horiz-adv-x="733" 
d="M93 0q-32 0 -42.5 23t5.5 61l255 584q8 19 22 28t34 9q39 0 55 -37l255 -584q17 -40 5 -62t-42 -22h-547zM365 599l-238 -558v35h479v-35l-239 558h-2z" />
    </font>
</defs>
</svg>
